<?xml version="1.0" standalone="no"?>
<!DOCTYPE svg PUBLIC "-//W3C//DTD SVG 1.1//EN" "http://www.w3.org/Graphics/SVG/1.1/DTD/svg11.dtd" >
<svg xmlns="http://www.w3.org/2000/svg" xmlns:xlink="http://www.w3.org/1999/xlink" version="1.1">
<metadata>
Created by FontForge 20170812 at Wed Mar 20 07:51:06 2019
 By www-data
Luciole (c) Laurent Bourcellier &#38; Jonathan Perez - 2019
</metadata>
<defs>
<font id="Luciole-Regular" horiz-adv-x="620" >
  <font-face 
    font-family="Luciole"
    font-weight="400"
    font-stretch="normal"
    units-per-em="1000"
    panose-1="2 11 5 0 2 2 0 0 0 3"
    ascent="800"
    descent="-200"
    x-height="545"
    cap-height="763"
    bbox="-70 -362 1641 1280"
    underline-thickness="90"
    underline-position="-265"
    unicode-range="U+000D-FB02"
  />
<missing-glyph horiz-adv-x="860" 
d="M770 802v-1037h-680v1037h680zM680 712h-500v-857h500v857zM613 466q0 -34 -15 -66t-64 -87q-55 -61 -72 -100t-17 -82h-101q-1 54 17 100.5t75 111.5q38 44 49 66.5t11 45.5q0 43 -25 67t-69 24q-40 0 -82.5 -17t-72.5 -45v111q34 25 78 38.5t89 13.5q90 0 144.5 -48.5
t54.5 -132.5zM473 -10q0 -32 -23 -55t-55 -23t-55 23t-23 55t23 55t55 23t55 -23t23 -55z" />
    <glyph glyph-name="fi" unicode="fi" horiz-adv-x="704" 
d="M636 751q0 -33 -22.5 -55.5t-55.5 -22.5t-55.5 22.5t-22.5 55.5t22.5 55.5t55.5 22.5t55.5 -22.5t22.5 -55.5zM234 450v-450h-112v450h-82v95h82q4 135 54 195.5t152 60.5q26 0 51.5 -4t52.5 -13v-104q-16 11 -39.5 17t-51.5 6q-61 0 -84 -30.5t-23 -127.5h145v-95h-145z
M614 545v-545h-112v545h112z" />
    <glyph glyph-name="fl" unicode="fl" horiz-adv-x="704" 
d="M234 450v-450h-112v450h-82v95h82q4 135 54 195.5t152 60.5q26 0 51.5 -4t52.5 -13v-104q-16 11 -39.5 17t-51.5 6q-61 0 -84 -30.5t-23 -127.5h145v-95h-145zM614 791v-791h-112v791h112z" />
    <glyph glyph-name="f_f" unicode="ff" horiz-adv-x="824" 
d="M234 450v-450h-112v450h-82v95h82q4 135 54 195.5t152 60.5q26 0 51.5 -4t52.5 -13v-104q-16 11 -39.5 17t-51.5 6q-61 0 -84 -30.5t-23 -127.5h145v-95h-145zM646 450v-450h-112v450h-82v95h82q4 135 54 195.5t152 60.5q26 0 51.5 -4t52.5 -13v-104q-16 11 -39.5 17
t-51.5 6q-61 0 -84 -30.5t-23 -127.5h145v-95h-145z" />
    <glyph glyph-name="f_f_i" unicode="ffi" horiz-adv-x="1116" 
d="M1048 751q0 -33 -22.5 -55.5t-55.5 -22.5t-55.5 22.5t-22.5 55.5t22.5 55.5t55.5 22.5t55.5 -22.5t22.5 -55.5zM234 450v-450h-112v450h-82v95h82q4 135 54 195.5t152 60.5q26 0 51.5 -4t52.5 -13v-104q-16 11 -39.5 17t-51.5 6q-61 0 -84 -30.5t-23 -127.5h145v-95h-145
zM646 450v-450h-112v450h-82v95h82q4 135 54 195.5t152 60.5q26 0 51.5 -4t52.5 -13v-104q-16 11 -39.5 17t-51.5 6q-61 0 -84 -30.5t-23 -127.5h145v-95h-145zM1026 545v-545h-112v545h112z" />
    <glyph glyph-name="f_f_l" unicode="ffl" horiz-adv-x="1116" 
d="M234 450v-450h-112v450h-82v95h82q4 135 54 195.5t152 60.5q26 0 51.5 -4t52.5 -13v-104q-16 11 -39.5 17t-51.5 6q-61 0 -84 -30.5t-23 -127.5h145v-95h-145zM646 450v-450h-112v450h-82v95h82q4 135 54 195.5t152 60.5q26 0 51.5 -4t52.5 -13v-104q-16 11 -39.5 17
t-51.5 6q-61 0 -84 -30.5t-23 -127.5h145v-95h-145zM1026 791v-791h-112v791h112z" />
    <glyph glyph-name=".notdef" horiz-adv-x="860" 
d="M770 802v-1037h-680v1037h680zM680 712h-500v-857h500v857zM613 466q0 -34 -15 -66t-64 -87q-55 -61 -72 -100t-17 -82h-101q-1 54 17 100.5t75 111.5q38 44 49 66.5t11 45.5q0 43 -25 67t-69 24q-40 0 -82.5 -17t-72.5 -45v111q34 25 78 38.5t89 13.5q90 0 144.5 -48.5
t54.5 -132.5zM473 -10q0 -32 -23 -55t-55 -23t-55 23t-23 55t23 55t55 23t55 -23t23 -55z" />
    <glyph glyph-name="glyph1" horiz-adv-x="0" 
 />
    <glyph glyph-name="glyph1" horiz-adv-x="0" 
 />
    <glyph glyph-name="nonmarkingreturn" unicode="&#xd;" horiz-adv-x="357" 
 />
    <glyph glyph-name="space" unicode=" " horiz-adv-x="357" 
 />
    <glyph glyph-name="exclam" unicode="!" horiz-adv-x="256" 
d="M75 439q-4 119 -5.5 187.5t-1.5 136.5h120q0 -63 -1 -127t-5 -175q-3 -99 -4 -148t-1 -94h-97q0 40 -1 85t-4 135zM206 68q0 -32 -23 -55t-55 -23t-55 23t-23 55t23 55t55 23t55 -23t23 -55z" />
    <glyph glyph-name="quotedbl" unicode="&#x22;" horiz-adv-x="434" 
d="M196 747l-96 -273l-80 23l53 272zM404 747l-96 -273l-80 23l53 272z" />
    <glyph glyph-name="numbersign" unicode="#" horiz-adv-x="786" 
d="M366 0l59 210h-158l-59 -210h-112l59 210h-95v101h123l38 133h-89v101h117l61 218h112l-61 -218h158l61 218h112l-61 -218h95v-101h-123l-38 -133h89v-101h-117l-59 -210h-112zM295 311h158l38 133h-158z" />
    <glyph glyph-name="dollar" unicode="$" horiz-adv-x="570" 
d="M510 208q0 -80 -44.5 -134t-124.5 -74v-78h-112v67q-45 2 -86.5 12t-82.5 28v120q41 -27 89 -41.5t97 -14.5q67 0 104.5 27t37.5 75q0 37 -25.5 67.5t-112.5 77.5q-57 31 -83.5 49.5t-45.5 38.5q-29 29 -43 64.5t-14 77.5q0 76 44 127.5t121 68.5v104h112v-97
q36 -3 69.5 -12t62.5 -24v-126q-29 26 -75.5 41t-95.5 15q-56 0 -86 -22.5t-30 -63.5q0 -35 24.5 -63.5t108.5 -72.5q59 -31 86.5 -50t46.5 -39q30 -31 44 -67.5t14 -80.5z" />
    <glyph glyph-name="percent" unicode="%" horiz-adv-x="1240" 
d="M493 518q0 -123 -52 -187.5t-153 -64.5t-153 64.5t-52 187.5t52 187.5t153 64.5t153 -64.5t52 -187.5zM833 763l-314 -763h-112l314 763h112zM387 518q0 82 -24.5 121t-74.5 39t-74.5 -39t-24.5 -121t24.5 -121t74.5 -39t74.5 39t24.5 121zM1163 241q0 -123 -52 -187.5
t-153 -64.5t-153 64.5t-52 187.5t52 187.5t153 64.5t153 -64.5t52 -187.5zM1057 241q0 82 -24.5 121t-74.5 39t-74.5 -39t-24.5 -121t24.5 -121t74.5 -39t74.5 39t24.5 121z" />
    <glyph glyph-name="ampersand" unicode="&#x26;" horiz-adv-x="719" 
d="M178 568q0 -59 50 -92t130 -33h310v-101h-132v-136q0 -66 15.5 -91t55.5 -25q17 0 35 3.5t37 10.5v-96q-24 -9 -48 -14t-48 -5q-48 0 -81.5 19t-54.5 56q-12 -15 -30 -28.5t-41 -25.5q-23 -10 -49 -15.5t-54 -5.5q-99 0 -161 59.5t-62 157.5q0 71 33.5 122t90.5 70v2
q-54 23 -83.5 69.5t-29.5 108.5q0 90 63 143t173 53q52 0 103.5 -11t84.5 -30v-111q-16 11 -36.5 20t-45.5 16q-23 7 -45.5 10t-45.5 3q-65 0 -99.5 -26.5t-34.5 -76.5zM167 216q0 -58 35 -92.5t95 -34.5q43 0 77 16.5t49 44.5v192h-65q-100 0 -145.5 -31t-45.5 -95z" />
    <glyph glyph-name="quotesingle" unicode="'" horiz-adv-x="226" 
d="M196 747l-96 -273l-80 23l53 272z" />
    <glyph glyph-name="parenleft" unicode="(" horiz-adv-x="345" 
d="M182 284q0 -132 37 -252t106 -212l-77 -55q-86 101 -132 235.5t-46 282.5t46 283t132 237l77 -55q-69 -91 -106 -211.5t-37 -252.5z" />
    <glyph glyph-name="parenright" unicode=")" horiz-adv-x="345" 
d="M163 283q0 132 -37 252t-106 212l77 55q86 -101 132 -235.5t46 -282.5t-46 -283t-132 -237l-77 55q69 91 106 211.5t37 252.5z" />
    <glyph glyph-name="asterisk" unicode="*" horiz-adv-x="519" 
d="M325 570l97 -118l-82 -60l-80 126l-81 -126l-82 60l97 118l-144 38l31 97l136 -53l-8 139h102l-8 -139l135 53l31 -97z" />
    <glyph glyph-name="plus" unicode="+" horiz-adv-x="722" 
d="M622 222h-206v-212h-110v212h-206v100h206v212h110v-212h206v-100z" />
    <glyph glyph-name="comma" unicode="," horiz-adv-x="252" 
d="M227 86l-142 -251l-75 37l99 258z" />
    <glyph glyph-name="hyphen" unicode="-" horiz-adv-x="436" 
d="M386 323v-101h-336v101h336z" />
    <glyph glyph-name="period" unicode="." horiz-adv-x="256" 
d="M206 68q0 -32 -23 -55t-55 -23t-55 23t-23 55t23 55t55 23t55 -23t23 -55z" />
    <glyph glyph-name="slash" unicode="/" horiz-adv-x="461" 
d="M328 870h113l-309 -948h-112z" />
    <glyph glyph-name="zero" unicode="0" horiz-adv-x="691" 
d="M621 381q0 -192 -70 -292t-206 -100t-205.5 99.5t-69.5 292.5t69.5 293t205.5 100t206 -100.5t70 -292.5zM503 381q0 148 -39 218t-119 70t-118.5 -69.5t-38.5 -218.5q0 -148 38.5 -217.5t118.5 -69.5t119 69.5t39 217.5z" />
    <glyph glyph-name="one" unicode="1" horiz-adv-x="537" 
d="M492 103v-103h-423v103h154v461h-163v90q21 0 39 2.5t34 6.5q19 6 34.5 14.5t26.5 20.5q15 16 22 32t7 33h115v-660h154z" />
    <glyph glyph-name="two" unicode="2" horiz-adv-x="581" 
d="M511 103v-103h-451v123q83 79 124 119.5t70 72.5q68 74 98.5 130t30.5 104q0 59 -34 91t-95 32q-47 0 -97 -20t-86 -52v113q41 29 92.5 45.5t102.5 16.5q112 0 173 -58.5t61 -167.5q0 -85 -62.5 -178t-243.5 -265l3 -3h314z" />
    <glyph glyph-name="three" unicode="3" horiz-adv-x="569" 
d="M244 -11q-24 0 -46.5 2.5t-43.5 6.5q-28 6 -49 14t-35 18v114q15 -12 36 -21.5t48 -17.5q22 -6 45.5 -9.5t47.5 -3.5q69 0 112 35t43 92q0 62 -46.5 92.5t-144.5 30.5h-74v101h74q80 0 130 32.5t50 91.5q0 51 -34.5 77.5t-99.5 26.5q-23 0 -45.5 -3t-45.5 -10
q-25 -7 -45.5 -16t-36.5 -20v111q33 19 84.5 30t103.5 11q109 0 172.5 -52t63.5 -141q0 -63 -29.5 -110.5t-83.5 -70.5v-2q59 -19 91.5 -66t32.5 -116q0 -104 -76 -165.5t-199 -61.5z" />
    <glyph glyph-name="four" unicode="4" horiz-adv-x="651" 
d="M378 0v179h-328v96l307 488h136v-488h88v-96h-88v-179h-115zM172 275h206v358h-3q-4 -11 -11 -25t-53 -91l-142 -239z" />
    <glyph glyph-name="five" unicode="5" horiz-adv-x="601" 
d="M258 -11q-25 0 -48 2t-44 7q-30 6 -51 14t-35 18v113q15 -12 37 -21.5t50 -17.5q23 -6 46.5 -9t48.5 -3q70 0 111 37.5t41 100.5q0 54 -30.5 86.5t-91.5 43.5q-26 5 -58.5 6t-138.5 -6v404h396v-103h-281v-200q154 13 237.5 -46t83.5 -179q0 -108 -74.5 -177.5
t-198.5 -69.5z" />
    <glyph glyph-name="six" unicode="6" horiz-adv-x="643" 
d="M578 243q0 -110 -69.5 -182t-180.5 -72q-126 0 -192 94.5t-66 272.5q0 201 80.5 309.5t231.5 108.5q38 0 78.5 -8t80.5 -23v-114q-45 21 -83 31.5t-72 10.5q-98 0 -149.5 -62t-51.5 -180q35 25 75 37.5t82 12.5q109 0 172.5 -64t63.5 -172zM461 234q0 72 -37.5 110.5
t-106.5 38.5q-40 0 -74.5 -12.5t-57.5 -34.5q0 -123 36.5 -186t108.5 -63q62 0 96.5 39.5t34.5 107.5z" />
    <glyph glyph-name="seven" unicode="7" horiz-adv-x="534" 
d="M494 651l-290 -651h-119l296 657l-3 3h-348v103h464v-112z" />
    <glyph glyph-name="eight" unicode="8" horiz-adv-x="674" 
d="M604 209q0 -95 -77 -157.5t-189 -62.5q-121 0 -194.5 58t-73.5 154q0 61 36 114t101 90q-52 27 -80.5 69.5t-28.5 93.5q0 89 68.5 147.5t172.5 58.5q103 0 167.5 -54t64.5 -138q0 -55 -30 -101t-80 -71q73 -37 108 -86.5t35 -114.5zM454 565q0 51 -32.5 82t-88.5 31
q-52 0 -85 -30t-33 -75q0 -42 37.5 -73t116.5 -54q39 19 62 50.5t23 68.5zM487 210q0 48 -50 87t-145 63q-47 -20 -76 -58.5t-29 -84.5q0 -60 39.5 -96t106.5 -36q71 0 112.5 33.5t41.5 91.5z" />
    <glyph glyph-name="nine" unicode="9" horiz-adv-x="643" 
d="M65 520q0 110 69.5 182t180.5 72q126 0 192 -94.5t66 -272.5q0 -201 -80.5 -309.5t-231.5 -108.5q-38 0 -78.5 8t-80.5 23v114q45 -21 83 -31.5t72 -10.5q98 0 149.5 62t51.5 180q-35 -25 -75 -37.5t-82 -12.5q-109 0 -172.5 64t-63.5 172zM182 529q0 -72 37.5 -110.5
t106.5 -38.5q40 0 74.5 12.5t57.5 34.5q0 123 -36.5 186t-108.5 63q-62 0 -96.5 -39.5t-34.5 -107.5z" />
    <glyph glyph-name="colon" unicode=":" horiz-adv-x="256" 
d="M206 478q0 -32 -23 -55t-55 -23t-55 23t-23 55t23 55t55 23t55 -23t23 -55zM206 67q0 -32 -23 -55t-55 -23t-55 23t-23 55t23 55t55 23t55 -23t23 -55z" />
    <glyph glyph-name="semicolon" unicode=";" horiz-adv-x="278" 
d="M228 478q0 -32 -23 -55t-55 -23t-55 23t-23 55t23 55t55 23t55 -23t23 -55zM217 86l-142 -251l-75 37l99 258z" />
    <glyph glyph-name="less" unicode="&#x3c;" horiz-adv-x="720" 
d="M620 112l-35 -101l-485 213v99l485 212l35 -100l-383 -162z" />
    <glyph glyph-name="equal" unicode="=" horiz-adv-x="724" 
d="M624 444v-101h-524v101h524zM624 202v-101h-524v101h524z" />
    <glyph glyph-name="greater" unicode="&#x3e;" horiz-adv-x="720" 
d="M620 224l-485 -213l-35 101l383 161l-383 162l35 100l485 -212v-99z" />
    <glyph glyph-name="question" unicode="?" horiz-adv-x="486" 
d="M436 594q0 -38 -16 -74t-68 -98q-58 -69 -76 -112t-18 -91h-101q-1 60 18 112t79 125q41 50 53 75.5t12 51.5q0 43 -28 67t-76 24q-44 0 -89.5 -17t-75.5 -45v111q34 25 80.5 38.5t96.5 13.5q95 0 152 -48.5t57 -132.5zM291 68q0 -32 -23 -55t-55 -23t-55 23t-23 55
t23 55t55 23t55 -23t23 -55z" />
    <glyph glyph-name="at" unicode="@" horiz-adv-x="758" 
d="M439 -131q56 0 108 16t110 51l11 -100q-46 -30 -107.5 -46.5t-127.5 -16.5q-174 0 -278.5 108t-104.5 280q0 176 106 285.5t286 109.5q117 0 171.5 -55t54.5 -168v-333h-81l-17 50l-3 1q-26 -28 -67.5 -45t-88.5 -17q-77 0 -123 46t-46 121q0 84 61.5 129.5t176.5 45.5
h76q1 3 1 6.5v10.5q0 60 -28 84t-96 24q-130 0 -205 -77.5t-75 -209.5q0 -135 76.5 -217.5t209.5 -82.5zM492 248q-70 0 -103.5 -19.5t-33.5 -63.5q0 -40 22.5 -61.5t64.5 -21.5q39 0 74 17t49 40v109h-73z" />
    <glyph glyph-name="A" unicode="A" horiz-adv-x="685" 
d="M208 175l-52 -175h-126l243 763h141l241 -763h-126l-52 175h-269zM342 642q-11 -46 -24 -93t-26 -91l-51 -174h204l-50 175q-14 49 -27.5 98t-22.5 85h-3z" />
    <glyph glyph-name="B" unicode="B" horiz-adv-x="663" 
d="M331 763q119 0 181 -50.5t62 -148.5q0 -66 -28.5 -109.5t-82.5 -59.5v-2q63 -6 101.5 -54.5t38.5 -123.5q0 -103 -72 -159t-207 -56h-234v763h241zM211 444h111q65 0 99 27t34 80t-33 80.5t-95 27.5h-116v-215zM211 104h113q75 0 116.5 31.5t41.5 86.5t-41 86.5
t-114 31.5h-116v-236z" />
    <glyph glyph-name="C" unicode="C" horiz-adv-x="629" 
d="M171 382q0 -131 58.5 -207t157.5 -76q47 0 99.5 17t92.5 46v-117q-39 -25 -95 -40.5t-111 -15.5q-145 0 -234 110t-89 282q0 173 91.5 283t240.5 110q54 0 107 -14t85 -38v-117q-42 29 -89 44.5t-92 15.5q-102 0 -162 -75.5t-60 -207.5z" />
    <glyph glyph-name="D" unicode="D" horiz-adv-x="724" 
d="M674 381q0 -168 -93 -274.5t-246 -106.5h-245v763h234q160 0 255 -106t95 -276zM324 654h-113v-545h124q99 0 159 76t60 197q0 123 -62 197.5t-168 74.5z" />
    <glyph glyph-name="E" unicode="E" horiz-adv-x="573" 
d="M503 109v-109h-413v763h401v-109h-280v-207h265v-109h-265v-229h292z" />
    <glyph glyph-name="F" unicode="F" horiz-adv-x="552" 
d="M90 763h402v-109h-281v-207h265v-109h-265v-338h-121v763z" />
    <glyph glyph-name="G" unicode="G" horiz-adv-x="723" 
d="M361 390h272v-347q-59 -26 -121.5 -40t-118.5 -14q-158 0 -250.5 104t-92.5 288q0 185 94.5 289t255.5 104q53 0 108.5 -11.5t109.5 -34.5v-118q-54 27 -109.5 41t-104.5 14q-112 0 -173 -73.5t-61 -211.5q0 -139 61.5 -213t173.5 -74q29 0 57.5 5t50.5 14v169h-152v109z
" />
    <glyph glyph-name="H" unicode="H" horiz-adv-x="762" 
d="M211 338v-338h-121v763h121v-316h340v316h121v-763h-121v338h-340z" />
    <glyph glyph-name="I" unicode="I" horiz-adv-x="494" 
d="M424 109v-109h-354v109h117v545h-117v109h354v-109h-117v-545h117z" />
    <glyph glyph-name="J" unicode="J" horiz-adv-x="524" 
d="M434 289q0 -174 -51 -237t-184 -63q-47 0 -85 6.5t-54 16.5v115q21 -12 60 -19.5t75 -7.5q48 0 74 20t35 66q5 22 7 53.5t2 101.5v313h-232v109h353v-474z" />
    <glyph glyph-name="K" unicode="K" horiz-adv-x="640" 
d="M210 340v-340h-120v763h120v-318q34 0 53 16t53 65q13 18 31.5 45.5t48.5 72.5q14 21 41.5 62t37.5 57h145l-231 -316q-7 -10 -14 -18t-14 -14q-11 -10 -19.5 -15.5t-15.5 -5.5v-3q7 0 16 -5t20 -16q7 -7 14 -15t14 -18l240 -337h-146l-42 63t-41 62q-32 47 -51 75
t-33 47q-39 56 -58 74.5t-49 18.5z" />
    <glyph glyph-name="L" unicode="L" horiz-adv-x="543" 
d="M503 109v-109h-413v763h121v-654h292z" />
    <glyph glyph-name="M" unicode="M" horiz-adv-x="926" 
d="M208 437l-11 -437h-122l36 763h138l176 -510q11 -32 20 -62.5t16 -60.5h3q1 2 13.5 46.5t23.5 77.5l176 509h138l36 -763h-122l-11 437q-1 38 0.5 75t4.5 73h-3q-8 -36 -19 -73t-24 -75l-151 -437h-126l-151 437q-13 38 -23.5 75t-19.5 73h-3q4 -36 5 -73t0 -75z" />
    <glyph glyph-name="N" unicode="N" horiz-adv-x="762" 
d="M211 453v-453h-121v763h121l283 -458q13 -20 27.5 -49t31.5 -67h4q-3 38 -4.5 68t-1.5 53v453h121v-763h-121l-283 458q-16 26 -30.5 55t-28.5 61h-4q3 -32 4.5 -62t1.5 -59z" />
    <glyph glyph-name="O" unicode="O" horiz-adv-x="785" 
d="M735 381q0 -174 -94 -283t-249 -109t-248.5 109t-93.5 283q0 175 93.5 284t248.5 109t249 -109.5t94 -283.5zM614 381q0 126 -60.5 205t-161.5 79t-161 -78.5t-60 -205.5q0 -126 60 -204.5t161 -78.5t161.5 78.5t60.5 204.5z" />
    <glyph glyph-name="P" unicode="P" horiz-adv-x="609" 
d="M211 250v-250h-121v763h194q142 0 213.5 -62.5t71.5 -186.5q0 -128 -77 -196t-219 -68h-62zM284 654h-73v-295h62q90 0 132.5 37t42.5 111q0 73 -41.5 110t-122.5 37z" />
    <glyph glyph-name="Q" unicode="Q" horiz-adv-x="792" 
d="M762 56l-82 -77l-78 81q-41 -34 -94.5 -52.5t-115.5 -18.5q-155 0 -248.5 109t-93.5 283q0 175 93.5 284t248.5 109t249 -109.5t94 -283.5q0 -71 -16.5 -133t-47.5 -110zM171 381q0 -126 60 -204.5t161 -78.5q37 0 69.5 11t57.5 32l-128 119l78 78l113 -115q16 33 24 73
t8 85q0 126 -60.5 205t-161.5 79t-161 -78.5t-60 -205.5z" />
    <glyph glyph-name="R" unicode="R" horiz-adv-x="656" 
d="M211 292v-292h-121v763h194q140 0 212.5 -57t72.5 -169q0 -76 -33 -130t-96 -83l186 -324h-141l-158 297q-16 -3 -32.5 -4t-34.5 -1h-49zM284 654h-73v-255h62q87 0 131 32t44 96q0 62 -42.5 94.5t-121.5 32.5z" />
    <glyph glyph-name="S" unicode="S" horiz-adv-x="570" 
d="M510 208q0 -102 -70.5 -160.5t-195.5 -58.5q-49 0 -94.5 10t-89.5 30v120q41 -27 89 -41.5t97 -14.5q67 0 104.5 27t37.5 75q0 37 -25.5 67.5t-112.5 77.5q-57 31 -83.5 49.5t-45.5 38.5q-29 29 -43 64.5t-14 77.5q0 94 66 149t178 55q46 0 88 -9.5t77 -27.5v-126
q-29 26 -75.5 41t-95.5 15q-56 0 -86 -22.5t-30 -63.5q0 -35 24.5 -63.5t108.5 -72.5q59 -31 86.5 -50t46.5 -39q30 -31 44 -67.5t14 -80.5z" />
    <glyph glyph-name="T" unicode="T" horiz-adv-x="550" 
d="M335 654v-654h-120v654h-205v109h530v-109h-205z" />
    <glyph glyph-name="U" unicode="U" horiz-adv-x="762" 
d="M381 -11q-94 0 -154.5 28.5t-92.5 88.5q-23 43 -33.5 107.5t-10.5 176.5v373h121v-383q0 -83 4.5 -122.5t14.5 -66.5q17 -47 54 -69t98 -22t97.5 22t53.5 69q10 27 14 65.5t4 123.5v383h121v-373q0 -106 -11 -171.5t-35 -110.5q-32 -61 -92.5 -90t-152.5 -29z" />
    <glyph glyph-name="V" unicode="V" horiz-adv-x="685" 
d="M655 763l-240 -763h-143l-242 763h126l186 -635h3l184 635h126z" />
    <glyph glyph-name="W" unicode="W" horiz-adv-x="1015" 
d="M506 596l-142 -596h-149l-165 763h126l73 -373q8 -41 15 -80.5t18 -100.5q5 -26 7 -39t4 -23h3q4 15 8 33t13 59q11 53 18.5 85.5t15.5 65.5l89 373h136l91 -372q7 -28 14 -58.5t19 -86.5q9 -44 13.5 -64t8.5 -35h3q20 111 28.5 156.5t16.5 88.5l69 371h126l-165 -763
h-149l-142 596h-3z" />
    <glyph glyph-name="X" unicode="X" horiz-adv-x="644" 
d="M316 288l-157 -288h-139l236 397l-225 366h138l156 -271h3l146 271h137l-222 -382l235 -381h-140l-166 288h-2z" />
    <glyph glyph-name="Y" unicode="Y" horiz-adv-x="625" 
d="M373 348v-348h-120v348l-253 415h136l154 -261q6 -10 11.5 -22.5t10.5 -28.5h3q6 15 11.5 28t11.5 23l151 261h136z" />
    <glyph glyph-name="Z" unicode="Z" horiz-adv-x="618" 
d="M558 109v-109h-498v109l349 542l-3 3h-336v109h478v-109l-349 -542l3 -3h356z" />
    <glyph glyph-name="bracketleft" unicode="[" horiz-adv-x="301" 
d="M281 697h-99v-827h99v-94h-211v1015h211v-94z" />
    <glyph glyph-name="backslash" unicode="\" horiz-adv-x="461" 
d="M20 870h113l308 -948h-112z" />
    <glyph glyph-name="bracketright" unicode="]" horiz-adv-x="301" 
d="M119 697h-99v94h211v-1015h-211v94h99v827z" />
    <glyph glyph-name="asciicircum" unicode="^" horiz-adv-x="712" 
d="M612 264v-137l-256 225l-256 -225v137l209 186h94z" />
    <glyph glyph-name="underscore" unicode="_" horiz-adv-x="504" 
d="M504 -123v-101h-504v101h504z" />
    <glyph glyph-name="grave" unicode="`" horiz-adv-x="301" 
d="M121 901l160 -194l-58 -60l-203 176z" />
    <glyph glyph-name="a" unicode="a" horiz-adv-x="566" 
d="M385 51q-26 -28 -67.5 -45t-88.5 -17q-77 0 -123 46t-46 121q0 84 61.5 129.5t176.5 45.5h76q1 3 1 7v14q0 58 -25.5 81t-88.5 23q-41 0 -79.5 -9t-80.5 -29v103q17 8 39.5 14.5t49.5 11.5q23 5 47 7t47 2q108 0 155 -52t47 -167v-337h-81l-17 50zM310 248
q-70 0 -103.5 -20t-33.5 -64q0 -40 22 -61t64 -21q39 0 74.5 17t49.5 40v109h-73z" />
    <glyph glyph-name="b" unicode="b" horiz-adv-x="602" 
d="M552 280q0 -132 -70 -211.5t-188 -79.5q-39 0 -78.5 9.5t-125.5 45.5v747h113v-286l3 -3q24 25 60.5 39.5t76.5 14.5q93 0 151 -77.5t58 -198.5zM203 113q20 -11 45.5 -17t49.5 -6q66 0 103.5 51t37.5 136q0 81 -35 129.5t-95 48.5q-33 0 -62.5 -15t-43.5 -39v-288z" />
    <glyph glyph-name="c" unicode="c" horiz-adv-x="494" 
d="M444 26q-26 -17 -66.5 -27t-81.5 -10q-114 0 -180 77t-66 206t66.5 206.5t180.5 77.5q41 0 81 -9.5t63 -24.5v-108q-18 18 -56.5 29.5t-78.5 11.5q-73 0 -108 -44t-35 -134q0 -94 35 -140.5t106 -46.5q37 0 77.5 12t62.5 29v-105z" />
    <glyph glyph-name="d" unicode="d" horiz-adv-x="602" 
d="M396 42q-24 -25 -59.5 -39t-74.5 -14q-94 0 -153 78t-59 200q0 129 66.5 209t177.5 80q35 0 60.5 -6t41.5 -19l3 3v257h113v-791h-113v39zM399 429q-15 12 -39 19t-50 7q-69 0 -108 -48.5t-39 -135.5q0 -84 35 -133.5t95 -49.5q34 0 63 16t43 41v284z" />
    <glyph glyph-name="e" unicode="e" horiz-adv-x="559" 
d="M486 20q-42 -16 -82 -23.5t-80 -7.5q-129 0 -201.5 73.5t-72.5 206.5q0 131 68 209t184 78q99 0 153 -59.5t54 -165.5q0 -24 -3 -50t-9 -52h-338q10 -71 51 -106t115 -35q37 0 77.5 8.5t83.5 25.5v-102zM407 352q1 52 -29.5 83.5t-84.5 31.5q-59 0 -94 -39t-40 -111h245
q1 8 2 17.5t1 17.5z" />
    <glyph glyph-name="f" unicode="f" horiz-adv-x="412" 
d="M234 450v-450h-112v450h-82v95h82q4 135 54 195.5t152 60.5q26 0 51.5 -4t52.5 -13v-104q-16 11 -39.5 17t-51.5 6q-61 0 -84 -30.5t-23 -127.5h145v-95h-145z" />
    <glyph glyph-name="g" unicode="g" horiz-adv-x="587" 
d="M60 -85q0 33 15.5 62t39.5 44q-22 11 -33 31t-11 47q0 30 13.5 65t42.5 78q-25 25 -38.5 58t-13.5 70q0 82 57 134t155 52q38 0 70.5 -8t57.5 -24l124 32v-105h-58q9 -19 13.5 -39t4.5 -42q0 -83 -57 -134.5t-155 -51.5q-27 0 -50.5 4t-42.5 11q-12 -24 -16 -38t-4 -28
q0 -24 13 -32.5t56 -8.5h130q83 0 128.5 -39t45.5 -108q0 -85 -68 -132.5t-184 -47.5q-106 0 -170.5 42t-64.5 108zM391 370q0 45 -27 69.5t-77 24.5t-77 -24.5t-27 -69.5t27 -69.5t77 -24.5t77 24.5t27 69.5zM217 0h-16t-9 1q-11 -13 -17.5 -29t-6.5 -33q0 -39 34.5 -60.5
t98.5 -21.5q65 0 101.5 21t36.5 61q0 31 -23.5 46t-70.5 15h-128z" />
    <glyph glyph-name="h" unicode="h" 
d="M202 402v-402h-112v791h112v-286l3 -3q39 28 79.5 41t83.5 13q80 0 121 -44t41 -130v-382h-112v345q0 60 -18.5 85.5t-61.5 25.5q-38 0 -79 -16t-57 -38z" />
    <glyph glyph-name="i" unicode="i" horiz-adv-x="292" 
d="M224 751q0 -33 -22.5 -55.5t-55.5 -22.5t-55.5 22.5t-22.5 55.5t22.5 55.5t55.5 22.5t55.5 -22.5t22.5 -55.5zM202 545v-545h-112v545h112z" />
    <glyph glyph-name="j" unicode="j" horiz-adv-x="292" 
d="M226 751q0 -33 -22.5 -55.5t-55.5 -22.5t-55.5 22.5t-22.5 55.5t22.5 55.5t55.5 22.5t55.5 -22.5t22.5 -55.5zM-70 -134q45 0 74.5 8t48.5 26q21 19 29 49.5t8 99.5v496h112v-496q0 -87 -18.5 -144t-58.5 -89q-33 -27 -81.5 -39.5t-113.5 -11.5v101z" />
    <glyph glyph-name="k" unicode="k" horiz-adv-x="553" 
d="M203 232v-232h-113v791h113v-464q41 0 56.5 8t33.5 31q11 13 25 33.5t35 55.5q8 13 19 30.5t36 59.5h125l-141 -213q-16 -24 -31 -38.5t-24 -14.5v-3q9 0 23.5 -14.5t34.5 -42.5l153 -219h-133l-40 60t-21 32q-22 33 -36.5 54t-25.5 35q-23 30 -38.5 40.5t-50.5 10.5z
" />
    <glyph glyph-name="l" unicode="l" horiz-adv-x="292" 
d="M202 791v-791h-112v791h112z" />
    <glyph glyph-name="m" unicode="m" horiz-adv-x="930" 
d="M202 403v-403h-112v545h112v-40l3 -3q38 28 77.5 41t82.5 13q48 0 81.5 -16t49.5 -47q40 31 87 47t97 16q81 0 120.5 -43t39.5 -131v-382h-112v345q0 59 -18.5 85t-61.5 26q-37 0 -74 -16t-53 -38v-402h-112v339q0 65 -17.5 91t-61.5 26q-38 0 -75 -15t-53 -38z" />
    <glyph glyph-name="n" unicode="n" 
d="M202 402v-402h-112v545h112v-40l3 -3q38 27 79 40.5t85 13.5q79 0 120 -44t41 -130v-382h-112v345q0 61 -18 86t-61 25q-39 0 -79.5 -16t-57.5 -38z" />
    <glyph glyph-name="o" unicode="o" horiz-adv-x="593" 
d="M543 272q0 -127 -67 -205t-180 -78q-112 0 -179 78t-67 205t67 205.5t179 78.5t179.5 -78.5t67.5 -205.5zM430 272q0 84 -36 134t-98 50q-63 0 -98 -49.5t-35 -134.5t35 -134t98 -49q62 0 98 49.5t36 133.5z" />
    <glyph glyph-name="p" unicode="p" horiz-adv-x="602" 
d="M203 10v-234h-113v769h113v-39l3 -3q25 25 60 39t74 14q95 0 153.5 -78t58.5 -199q0 -129 -67 -209.5t-177 -80.5q-33 0 -58.5 6t-43.5 18zM309 457q-35 0 -64.5 -16.5t-41.5 -40.5v-285q15 -12 38.5 -18.5t50.5 -6.5q70 0 108.5 47.5t38.5 135.5q0 85 -35 134.5
t-95 49.5z" />
    <glyph glyph-name="q" unicode="q" horiz-adv-x="602" 
d="M396 42q-26 -26 -59.5 -39.5t-72.5 -13.5q-96 0 -155 77.5t-59 199.5q0 129 67.5 209.5t179.5 80.5q30 0 56.5 -6.5t52.5 -20.5l106 24v-777h-113v263zM399 428q-17 12 -42.5 19.5t-51.5 7.5q-66 0 -104 -50t-38 -136q0 -83 36 -132t98 -49q35 0 62 16t40 43v281z" />
    <glyph glyph-name="r" unicode="r" horiz-adv-x="425" 
d="M202 360v-360h-112v545h112v-65l4 -3q28 38 67.5 58.5t87.5 20.5q9 0 17.5 -0.5t16.5 -1.5v-122q-5 1 -10 1h-12q-62 0 -106.5 -19.5t-64.5 -53.5z" />
    <glyph glyph-name="s" unicode="s" horiz-adv-x="497" 
d="M437 151q0 -73 -55 -117.5t-147 -44.5q-46 0 -91.5 11t-73.5 29v107q13 -12 31.5 -21.5t42.5 -17.5q20 -6 41 -9.5t43 -3.5q47 0 73 14.5t26 41.5q0 22 -19 40t-83 45q-48 21 -70.5 34t-38.5 27q-26 22 -38.5 49.5t-12.5 61.5q0 73 53.5 116t146.5 43q44 0 85 -10.5
t67 -26.5v-100q-36 20 -76.5 31t-78.5 11q-42 0 -64.5 -15t-22.5 -41q0 -22 19 -39.5t83 -44.5q48 -20 70.5 -33t38.5 -27q26 -22 38.5 -49t12.5 -61z" />
    <glyph glyph-name="t" unicode="t" horiz-adv-x="434" 
d="M393 8q-22 -9 -49 -14t-55 -5q-86 0 -128.5 48t-42.5 144v268h-88v96h88v144h112v-144h152v-96h-152v-206q0 -89 17.5 -121t65.5 -32q19 0 40.5 4t39.5 10v-96z" />
    <glyph glyph-name="u" unicode="u" 
d="M415 43q-38 -27 -79 -40.5t-85 -13.5q-79 0 -120 44t-41 130v382h112v-345q0 -61 18 -86t61 -25q38 0 79.5 16t57.5 38v402h112v-545h-112v40z" />
    <glyph glyph-name="v" unicode="v" horiz-adv-x="522" 
d="M512 545l-195 -545h-112l-195 545h123l106 -337q10 -31 15 -51t6 -30h3q1 10 6.5 30.5t14.5 50.5l105 337h123z" />
    <glyph glyph-name="w" unicode="w" horiz-adv-x="804" 
d="M378 297l-92 -297h-113l-163 545h121l79 -314q11 -41 16 -65.5t4 -31.5h3q0 7 6 31.5t18 65.5l92 314h112l90 -314q12 -42 18 -66t5 -31h3q0 7 5.5 31t15.5 66l80 314h116l-165 -545h-113l-89 297q-11 39 -17 63t-6 34h-3q1 -10 -5 -34t-18 -63z" />
    <glyph glyph-name="x" unicode="x" horiz-adv-x="526" 
d="M258 198l-115 -198h-123l179 287l-169 258h126l110 -180h3l103 180h124l-169 -271l179 -274h-126l-119 198h-3z" />
    <glyph glyph-name="y" unicode="y" horiz-adv-x="522" 
d="M317 0q-46 -130 -98.5 -177.5t-143.5 -55.5q-7 -1 -16 -1h-28v100q8 0 17 0.5t21 1.5q58 8 91.5 40.5t44.5 91.5l-195 545h123l107 -337q12 -36 17 -56t3 -25h3q-1 5 4 25t16 56l106 337h123z" />
    <glyph glyph-name="z" unicode="z" horiz-adv-x="508" 
d="M458 99v-99h-398v101l259 342l-3 3h-245v99h376v-101l-258 -342l3 -3h266z" />
    <glyph glyph-name="braceleft" unicode="{" horiz-adv-x="333" 
d="M104 50q15 40 19.5 60t4.5 36q0 36 -15.5 64.5t-42.5 36.5v72q27 8 42.5 36.5t15.5 64.5q0 16 -4.5 36t-19.5 60q-17 45 -22 67.5t-5 41.5q0 91 59 134t169 31l8 -94q-69 7 -96.5 -10.5t-27.5 -64.5q0 -16 4.5 -36.5t20.5 -62.5q16 -45 21 -67t5 -40q0 -43 -15.5 -77
t-45.5 -55q30 -21 45.5 -55t15.5 -77q0 -18 -5 -40t-21 -67q-16 -42 -20.5 -62.5t-4.5 -36.5q0 -46 25 -63.5t91 -11.5v-94q-110 -12 -169 31t-59 134q0 19 5 41.5t22 67.5z" />
    <glyph glyph-name="bar" unicode="|" horiz-adv-x="292" 
d="M90 -224v1015h112v-1015h-112z" />
    <glyph glyph-name="braceright" unicode="}" horiz-adv-x="333" 
d="M229 517q-15 -40 -19.5 -60t-4.5 -36q0 -36 15.5 -64.5t42.5 -36.5v-72q-27 -8 -42.5 -36.5t-15.5 -64.5q0 -16 4.5 -36t19.5 -60q17 -45 22 -67.5t5 -41.5q0 -91 -59 -134t-169 -31l-8 94q69 -7 96.5 10.5t27.5 64.5q0 16 -4.5 36.5t-20.5 62.5q-16 45 -21 67t-5 40
q0 43 15.5 77t45.5 55q-30 21 -45.5 55t-15.5 77q0 18 5 40t21 67q16 42 20.5 62.5t4.5 36.5q0 46 -25 63.5t-91 11.5v94q110 12 169 -31t59 -134q0 -19 -5 -41.5t-22 -67.5z" />
    <glyph glyph-name="asciitilde" unicode="~" horiz-adv-x="716" 
d="M390 321q31 -23 44.5 -30t24.5 -7q26 0 37.5 21t11.5 74h107q6 -100 -32 -157t-113 -57q-31 0 -62.5 13t-82.5 51q-31 24 -44.5 30.5t-23.5 6.5q-27 0 -38 -20.5t-11 -74.5h-107q-5 101 33 157.5t111 56.5q31 0 62.5 -13t82.5 -51z" />
    <glyph glyph-name="exclamdown" unicode="&#xa1;" horiz-adv-x="256" 
d="M50 471q0 32 23 55t55 23t55 -23t23 -55t-23 -55t-55 -23t-55 23t-23 55zM181 100q4 -119 5.5 -187.5t1.5 -136.5h-120q0 63 1 127t5 175q3 99 4 148t1 94h97q0 -40 1 -85t4 -135z" />
    <glyph glyph-name="cent" unicode="&#xa2;" horiz-adv-x="494" 
d="M444 136q-19 -12 -46 -21t-57 -13v-102h-112v107q-84 21 -131.5 93.5t-47.5 181.5t47.5 182t131.5 94v105h112v-100q30 -4 56.5 -12t43.5 -19v-108q-18 18 -56.5 29.5t-78.5 11.5q-73 0 -108 -44t-35 -134q0 -94 35 -140.5t106 -46.5q37 0 77.5 12t62.5 29v-105z" />
    <glyph glyph-name="sterling" unicode="&#xa3;" horiz-adv-x="634" 
d="M574 101v-101h-504v101h78q33 43 42 93t-4 115q-1 5 -3 13.5t-6 19.5h-97v101h70q-8 33 -14 65.5t-6 55.5q0 97 62.5 153t173.5 56q53 0 107 -14t87 -36v-121q-26 27 -76 47t-99 20q-72 0 -106.5 -26t-34.5 -80q0 -14 7.5 -47.5t16.5 -72.5h270v-101h-246q2 -10 3.5 -19
t2.5 -17q9 -65 2 -116t-31 -89h305z" />
    <glyph glyph-name="currency" unicode="&#xa4;" horiz-adv-x="664" 
d="M604 74l-75 -74l-103 103q-20 -11 -44 -16.5t-50 -5.5q-27 0 -51 5.5t-44 16.5l-102 -103l-75 74l103 103q-11 20 -16.5 44t-5.5 51t5.5 51t15.5 44l-102 103l74 75l103 -103q21 10 44.5 15.5t50.5 5.5q26 0 50 -5.5t44 -16.5l104 104l74 -75l-103 -103q11 -20 16.5 -44
t5.5 -51q0 -26 -5.5 -50t-16.5 -44zM421 272q0 41 -24.5 66t-64.5 25t-64.5 -25t-24.5 -66q0 -40 24.5 -65t64.5 -25t64.5 25t24.5 65z" />
    <glyph glyph-name="yen" unicode="&#xa5;" horiz-adv-x="645" 
d="M573 155h-190v-155h-120v155h-194v101h194v89h-194v101h134l-193 317h136l154 -261q6 -10 11.5 -22.5t10.5 -28.5h3q6 15 11.5 28t11.5 23l151 261h136l-192 -317h130v-101h-190v-89h190v-101z" />
    <glyph glyph-name="brokenbar" unicode="&#xa6;" horiz-adv-x="292" 
d="M90 390v401h112v-401h-112zM90 -224v405h112v-405h-112z" />
    <glyph glyph-name="section" unicode="&#xa7;" horiz-adv-x="606" 
d="M526 -13q0 -104 -70 -163t-195 -59q-50 0 -95 10t-90 30v120q41 -27 89.5 -41.5t99.5 -14.5q67 0 103 27t36 78q0 36 -27 64.5t-118 73.5q-60 29 -87.5 46.5t-48.5 35.5q-32 30 -47.5 64.5t-15.5 76.5q0 35 14 66.5t43 59.5q-18 23 -27.5 50t-9.5 58q0 94 65 149.5
t175 55.5q48 0 91 -9.5t78 -27.5v-126q-29 25 -75 40.5t-92 15.5q-60 0 -90 -22.5t-30 -67.5q0 -33 26 -60t114 -68q61 -29 90 -47t50 -36q32 -30 48 -66t16 -79q0 -35 -13 -66.5t-41 -61.5q17 -23 25.5 -49.5t8.5 -56.5zM316 208q36 -16 60 -28t41 -22q8 12 12.5 27t4.5 33
q0 35 -28 63t-121 71q-30 14 -51.5 24.5t-37.5 19.5q-12 -11 -18 -27t-6 -36q0 -32 26.5 -58t117.5 -67z" />
    <glyph glyph-name="dieresis" unicode="&#xa8;" horiz-adv-x="496" 
d="M358 852q33 0 55.5 -22.5t22.5 -55.5t-22.5 -55.5t-55.5 -22.5t-55.5 22.5t-22.5 55.5t22.5 55.5t55.5 22.5zM138 852q33 0 55.5 -22.5t22.5 -55.5t-22.5 -55.5t-55.5 -22.5t-55.5 22.5t-22.5 55.5t22.5 55.5t55.5 22.5z" />
    <glyph glyph-name="copyright" unicode="&#xa9;" horiz-adv-x="858" 
d="M429 773q165 0 272 -111t107 -281t-107 -280.5t-272 -110.5t-272 110.5t-107 280.5t107 281t272 111zM429 676q-123 0 -203 -83.5t-80 -211.5t80 -211.5t203 -83.5t203 83.5t80 211.5t-80 211.5t-203 83.5zM544 193q-18 -13 -48.5 -20.5t-68.5 -7.5q-90 0 -142 59
t-52 157t52 157.5t142 59.5q38 0 67.5 -6.5t47.5 -19.5v-103q-14 14 -45 23t-64 9q-48 0 -71 -29.5t-23 -90.5q0 -57 24 -88t68 -31q32 0 64 9t49 22v-100z" />
    <glyph glyph-name="ordfeminine" unicode="&#xaa;" horiz-adv-x="436" 
d="M282 479q-20 -20 -46 -30.5t-56 -10.5q-53 0 -84 30t-31 80q0 54 42.5 81.5t125.5 27.5h39v12q0 24 -16 35t-50 11q-30 0 -55.5 -4.5t-55.5 -16.5v90q27 9 58 13.5t66 4.5q84 0 120 -37t36 -119v-201h-78l-13 33zM241 591q-39 0 -57 -9t-18 -31q0 -17 11.5 -26t32.5 -9
q23 0 43 8.5t28 19.5v47h-40zM386 374v-101h-336v101h336z" />
    <glyph glyph-name="guillemotleft" unicode="&#xab;" horiz-adv-x="698" 
d="M348 82l-53 -82l-255 234v77l255 234l54 -79l-203 -193zM657 82l-53 -82l-255 234v77l255 234l54 -79l-203 -193z" />
    <glyph glyph-name="logicalnot" unicode="&#xac;" horiz-adv-x="724" 
d="M100 323h524v-313h-110v212h-414v101z" />
    <glyph glyph-name="hyphensoft" unicode="&#xad;" horiz-adv-x="436" 
d="M386 323v-101h-336v101h336z" />
    <glyph glyph-name="registered" unicode="&#xae;" horiz-adv-x="741" 
d="M370 826q140 0 230.5 -93t90.5 -237q0 -143 -90.5 -236t-230.5 -93q-139 0 -229.5 93t-90.5 236q0 144 90.5 237t229.5 93zM370 733q-98 0 -162.5 -67t-64.5 -170q0 -102 64.5 -169t162.5 -67q99 0 163.5 67t64.5 169q0 103 -64.5 170t-163.5 67zM329 448v-100h-76v304
h104q66 0 99.5 -25t33.5 -74q0 -27 -13.5 -48t-37.5 -34l74 -123h-94l-51 101q-3 -1 -8 -1h-15h-16zM357 584h-28v-68h24q28 0 43.5 9t15.5 26q0 16 -14.5 24.5t-40.5 8.5z" />
    <glyph glyph-name="macron" unicode="&#xaf;" horiz-adv-x="402" 
d="M362 791v-92h-322v92h322z" />
    <glyph glyph-name="degree" unicode="&#xb0;" horiz-adv-x="482" 
d="M50 583q0 85 53 138t138 53q84 0 137.5 -53.5t53.5 -137.5t-53.5 -137.5t-137.5 -53.5q-85 0 -138 53t-53 138zM330 583q0 41 -24.5 66t-64.5 25t-64.5 -25t-24.5 -66q0 -40 24.5 -65t64.5 -25t64.5 25t24.5 65z" />
    <glyph glyph-name="plusminus" unicode="&#xb1;" horiz-adv-x="724" 
d="M624 111v-101h-524v101h206v138h-206v100h206v185h110v-185h206v-100h-206v-138h208z" />
    <glyph glyph-name="twosuperior" unicode="&#xb2;" horiz-adv-x="443" 
d="M383 359v-86h-333v96q12 11 59 52.5t69 63.5q55 50 76 80.5t21 56.5q0 29 -22.5 45t-62.5 16q-35 0 -70 -10.5t-62 -29.5v93q29 16 67.5 25.5t77.5 9.5q82 0 127 -38t45 -109q0 -50 -41.5 -104.5t-163.5 -158.5l2 -2h211z" />
    <glyph glyph-name="threesuperior" unicode="&#xb3;" horiz-adv-x="433" 
d="M393 415q0 -68 -55.5 -108.5t-148.5 -40.5q-41 0 -73.5 6t-55.5 17v97q29 -15 62 -22.5t70 -7.5q46 0 72.5 17t26.5 46q0 30 -28 44.5t-94 14.5h-56v89h56q50 0 82 16.5t32 44.5q0 26 -21.5 39t-62.5 13q-17 0 -34 -2.5t-34 -7.5q-19 -6 -34.5 -13t-27.5 -15v100
q25 13 63 20.5t80 7.5q81 0 127 -35t46 -94q0 -41 -21.5 -72t-57.5 -42v-2q40 -10 63.5 -39.5t23.5 -70.5z" />
    <glyph glyph-name="acute" unicode="&#xb4;" horiz-adv-x="301" 
d="M281 822l-203 -176l-58 60l164 197z" />
    <glyph glyph-name="mu.math" unicode="&#xb5;" 
d="M90 545h112v-345q0 -61 18 -86t61 -25q38 0 79.5 16t57.5 38v402h112v-545h-112v40l-3 3q-38 -27 -79 -40.5t-85 -13.5q-13 0 -25.5 1t-23.5 4v-218h-112v769z" />
    <glyph glyph-name="paragraph" unicode="&#xb6;" horiz-adv-x="698" 
d="M50 518q0 109 68.5 177t175.5 68h112v-841h-112v351q-107 0 -175.5 68t-68.5 177zM496 763h112v-841h-112v841z" />
    <glyph glyph-name="periodcentered" unicode="&#xb7;" horiz-adv-x="256" 
d="M206 273q0 -32 -23 -55t-55 -23t-55 23t-23 55t23 55t55 23t55 -23t23 -55z" />
    <glyph glyph-name="cedilla" unicode="&#xb8;" horiz-adv-x="237" 
d="M218 -56q0 -59 -37 -91t-98 -32q-18 0 -34 2t-30 6v92q13 -4 25 -6t24 -2q22 0 35.5 11t13.5 30t-10.5 36t-22.5 23l83 23q24 -18 37.5 -42.5t13.5 -49.5z" />
    <glyph glyph-name="onesuperior" unicode="&#xb9;" horiz-adv-x="406" 
d="M366 362v-89h-312v89h106v256h-110v78q14 0 26 1.5t22 3.5q13 4 23 9t18 12q11 9 16 19.5t5 21.5h100v-401h106z" />
    <glyph glyph-name="ordmasculine" unicode="&#xba;" horiz-adv-x="456" 
d="M406 619q0 -83 -48 -132.5t-130 -49.5t-130 49.5t-48 132.5t48 132.5t130 49.5t130 -49.5t48 -132.5zM302 619q0 46 -19.5 71.5t-54.5 25.5q-36 0 -55 -25.5t-19 -71.5t19 -71.5t55 -25.5q35 0 54.5 25.5t19.5 71.5zM396 374v-101h-336v101h336z" />
    <glyph glyph-name="guillemotright" unicode="&#xbb;" horiz-adv-x="698" 
d="M350 463l53 82l255 -234v-77l-255 -234l-54 79l203 193zM41 463l53 82l255 -234v-77l-255 -234l-54 79l203 193z" />
    <glyph glyph-name="onequarter" unicode="&#xbc;" horiz-adv-x="1121" 
d="M396 362v-89h-312v89h106v256h-110v78q14 0 26 1.5t22 3.5q13 4 23 9t18 12q11 9 16 19.5t5 21.5h100v-401h106zM791 763l-314 -763h-112l314 763h112zM877 0v109h-234v82l214 299h121v-297h60v-84h-60v-109h-101zM747 195l2 -2h128v118v26.5t1 34.5v12h-2
q-6 -11 -18.5 -31.5t-25.5 -41.5z" />
    <glyph glyph-name="onehalf" unicode="&#xbd;" horiz-adv-x="1154" 
d="M396 362v-89h-312v89h106v256h-110v78q14 0 26 1.5t22 3.5q13 4 23 9t18 12q11 9 16 19.5t5 21.5h100v-401h106zM790 763l-314 -763h-112l314 763h112zM1074 86v-86h-333v96q12 11 59 52.5t69 63.5q55 50 76 80.5t21 56.5q0 29 -22.5 45t-62.5 16q-35 0 -70 -10.5
t-62 -29.5v93q29 16 67.5 25.5t77.5 9.5q82 0 127 -38t45 -109q0 -50 -41.5 -104.5t-163.5 -158.5l2 -2h211z" />
    <glyph glyph-name="threequarters" unicode="&#xbe;" horiz-adv-x="1107" 
d="M416 415q0 -68 -55.5 -108.5t-148.5 -40.5q-41 0 -73.5 6t-55.5 17v97q29 -15 62 -22.5t70 -7.5q46 0 72.5 17t26.5 46q0 30 -28 44.5t-94 14.5h-56v89h56q50 0 82 16.5t32 44.5q0 26 -21.5 39t-62.5 13q-17 0 -34 -2.5t-34 -7.5q-19 -6 -34.5 -13t-27.5 -15v100
q25 13 63 20.5t80 7.5q81 0 127 -35t46 -94q0 -41 -21.5 -72t-57.5 -42v-2q40 -10 63.5 -39.5t23.5 -70.5zM777 763l-314 -763h-112l314 763h112zM863 0v109h-234v82l214 299h121v-297h60v-84h-60v-109h-101zM733 195l2 -2h128v118v26.5t1 34.5v12h-2q-6 -11 -18.5 -31.5
t-25.5 -41.5z" />
    <glyph glyph-name="questiondown" unicode="&#xbf;" horiz-adv-x="486" 
d="M195 473q0 32 23 55t55 23t55 -23t23 -55t-23 -55t-55 -23t-55 23t-23 55zM50 -53q0 38 16 74t68 98q58 69 76 112t18 91h101q1 -60 -18 -112t-79 -125q-41 -50 -53 -75.5t-12 -51.5q0 -43 28 -67t76 -24q44 0 89.5 17t75.5 45v-111q-34 -25 -80.5 -38.5t-96.5 -13.5
q-95 0 -152 48.5t-57 132.5z" />
    <glyph glyph-name="Agrave" unicode="&#xc0;" horiz-adv-x="685" 
d="M355 823l-237 125l76 101l204 -155zM208 175l-52 -175h-126l243 763h141l241 -763h-126l-52 175h-269zM342 642q-11 -46 -24 -93t-26 -91l-51 -174h204l-50 175q-14 49 -27.5 98t-22.5 85h-3z" />
    <glyph glyph-name="Aacute" unicode="&#xc1;" horiz-adv-x="685" 
d="M555 948l-237 -125l-43 71l204 155zM208 175l-52 -175h-126l243 763h141l241 -763h-126l-52 175h-269zM342 642q-11 -46 -24 -93t-26 -91l-51 -174h204l-50 175q-14 49 -27.5 98t-22.5 85h-3z" />
    <glyph glyph-name="Acircumflex" unicode="&#xc2;" horiz-adv-x="685" 
d="M342 933l-133 -116l-53 65l144 149h85l144 -149l-53 -65zM208 175l-52 -175h-126l243 763h141l241 -763h-126l-52 175h-269zM342 642q-11 -46 -24 -93t-26 -91l-51 -174h204l-50 175q-14 49 -27.5 98t-22.5 85h-3z" />
    <glyph glyph-name="Atilde" unicode="&#xc3;" horiz-adv-x="685" 
d="M507 998q7 -72 -16 -110.5t-72 -38.5q-16 0 -34.5 6.5t-53.5 25.5q-25 14 -35.5 18t-17.5 4q-14 0 -19.5 -14t-2.5 -42h-79q-7 72 16.5 110.5t71.5 38.5q17 0 36.5 -6.5t54.5 -25.5q24 -13 33.5 -16.5t16.5 -3.5q14 0 19.5 13.5t2.5 40.5h79zM208 175l-52 -175h-126
l243 763h141l241 -763h-126l-52 175h-269zM342 642q-11 -46 -24 -93t-26 -91l-51 -174h204l-50 175q-14 49 -27.5 98t-22.5 85h-3z" />
    <glyph glyph-name="Adieresis" unicode="&#xc4;" horiz-adv-x="685" 
d="M545 941q0 -33 -22.5 -55.5t-55.5 -22.5t-55.5 22.5t-22.5 55.5t22.5 55.5t55.5 22.5t55.5 -22.5t22.5 -55.5zM295 941q0 -33 -22.5 -55.5t-55.5 -22.5t-55.5 22.5t-22.5 55.5t22.5 55.5t55.5 22.5t55.5 -22.5t22.5 -55.5zM208 175l-52 -175h-126l243 763h141l241 -763
h-126l-52 175h-269zM342 642q-11 -46 -24 -93t-26 -91l-51 -174h204l-50 175q-14 49 -27.5 98t-22.5 85h-3z" />
    <glyph glyph-name="Aring" unicode="&#xc5;" horiz-adv-x="685" 
d="M342 1044q73 0 118.5 -34.5t45.5 -86.5t-45.5 -86.5t-118.5 -34.5t-118.5 34.5t-45.5 86.5t45.5 86.5t118.5 34.5zM342 969q-34 0 -54 -12.5t-20 -33.5t20 -33.5t54 -12.5q33 0 53.5 12.5t20.5 33.5t-20.5 33.5t-53.5 12.5zM208 175l-52 -175h-126l243 763h141l241 -763
h-126l-52 175h-269zM342 642q-11 -46 -24 -93t-26 -91l-51 -174h204l-50 175q-14 49 -27.5 98t-22.5 85h-3z" />
    <glyph glyph-name="AE" unicode="&#xc6;" horiz-adv-x="934" 
d="M30 0l358 763h464v-109h-280v-207h265v-109h-265v-229h292v-109h-413v175h-213l-77 -175h-131zM447 654l-162 -370h166v370h-4z" />
    <glyph glyph-name="Ccedilla" unicode="&#xc7;" horiz-adv-x="629" 
d="M439 -56q0 -59 -37 -91t-98 -32q-18 0 -34 2t-30 6v92q13 -4 25 -6t24 -2q22 0 35.5 11t13.5 30q0 10 -3.5 20t-8.5 18q-125 18 -200.5 124.5t-75.5 264.5q0 173 91.5 283t240.5 110q54 0 107 -14t85 -38v-117q-42 29 -89 44.5t-92 15.5q-102 0 -162 -75.5t-60 -207.5
q0 -131 58.5 -207t157.5 -76q47 0 99.5 17t92.5 46v-117q-30 -19 -70 -33t-83 -19q6 -12 9.5 -24.5t3.5 -24.5z" />
    <glyph glyph-name="Egrave" unicode="&#xc8;" horiz-adv-x="573" 
d="M340 823l-237 125l76 101l204 -155zM503 109v-109h-413v763h401v-109h-280v-207h265v-109h-265v-229h292z" />
    <glyph glyph-name="Eacute" unicode="&#xc9;" horiz-adv-x="573" 
d="M477 948l-237 -125l-43 71l204 155zM503 109v-109h-413v763h401v-109h-280v-207h265v-109h-265v-229h292z" />
    <glyph glyph-name="Ecircumflex" unicode="&#xca;" horiz-adv-x="573" 
d="M296 933l-133 -116l-53 65l144 149h85l144 -149l-53 -65zM503 109v-109h-413v763h401v-109h-280v-207h265v-109h-265v-229h292z" />
    <glyph glyph-name="Edieresis" unicode="&#xcb;" horiz-adv-x="573" 
d="M499 941q0 -33 -22.5 -55.5t-55.5 -22.5t-55.5 22.5t-22.5 55.5t22.5 55.5t55.5 22.5t55.5 -22.5t22.5 -55.5zM249 941q0 -33 -22.5 -55.5t-55.5 -22.5t-55.5 22.5t-22.5 55.5t22.5 55.5t55.5 22.5t55.5 -22.5t22.5 -55.5zM503 109v-109h-413v763h401v-109h-280v-207h265
v-109h-265v-229h292z" />
    <glyph glyph-name="Igrave" unicode="&#xcc;" horiz-adv-x="494" 
d="M272 823l-237 125l76 101l204 -155zM424 109v-109h-354v109h117v545h-117v109h354v-109h-117v-545h117z" />
    <glyph glyph-name="Iacute" unicode="&#xcd;" horiz-adv-x="494" 
d="M470 948l-237 -125l-43 71l204 155zM424 109v-109h-354v109h117v545h-117v109h354v-109h-117v-545h117z" />
    <glyph glyph-name="Icircumflex" unicode="&#xce;" horiz-adv-x="494" 
d="M247 933l-133 -116l-53 65l144 149h85l144 -149l-53 -65zM424 109v-109h-354v109h117v545h-117v109h354v-109h-117v-545h117z" />
    <glyph glyph-name="Idieresis" unicode="&#xcf;" horiz-adv-x="494" 
d="M450 941q0 -33 -22.5 -55.5t-55.5 -22.5t-55.5 22.5t-22.5 55.5t22.5 55.5t55.5 22.5t55.5 -22.5t22.5 -55.5zM200 941q0 -33 -22.5 -55.5t-55.5 -22.5t-55.5 22.5t-22.5 55.5t22.5 55.5t55.5 22.5t55.5 -22.5t22.5 -55.5zM424 109v-109h-354v109h117v545h-117v109h354
v-109h-117v-545h117z" />
    <glyph glyph-name="Eth" unicode="&#xd0;" horiz-adv-x="724" 
d="M674 381q0 -168 -93 -274.5t-246 -106.5h-245v342h-60v101h60v320h234q160 0 255 -106t95 -276zM211 109h124q99 0 159 76t60 197q0 123 -62 197.5t-168 74.5h-113v-211h155v-101h-155v-233z" />
    <glyph glyph-name="Ntilde" unicode="&#xd1;" horiz-adv-x="762" 
d="M546 998q7 -72 -16 -110.5t-72 -38.5q-16 0 -34.5 6.5t-53.5 25.5q-25 14 -35.5 18t-17.5 4q-14 0 -19.5 -14t-2.5 -42h-79q-7 72 16.5 110.5t71.5 38.5q17 0 36.5 -6.5t54.5 -25.5q24 -13 33.5 -16.5t16.5 -3.5q14 0 19.5 13.5t2.5 40.5h79zM211 453v-453h-121v763h121
l283 -458q13 -20 27.5 -49t31.5 -67h4q-3 38 -4.5 68t-1.5 53v453h121v-763h-121l-283 458q-16 26 -30.5 55t-28.5 61h-4q3 -32 4.5 -62t1.5 -59z" />
    <glyph glyph-name="Ograve" unicode="&#xd2;" horiz-adv-x="785" 
d="M416 823l-237 125l76 101l204 -155zM735 381q0 -174 -94 -283t-249 -109t-248.5 109t-93.5 283q0 175 93.5 284t248.5 109t249 -109.5t94 -283.5zM614 381q0 126 -60.5 205t-161.5 79t-161 -78.5t-60 -205.5q0 -126 60 -204.5t161 -78.5t161.5 78.5t60.5 204.5z" />
    <glyph glyph-name="Oacute" unicode="&#xd3;" horiz-adv-x="785" 
d="M601 948l-237 -125l-43 71l204 155zM735 381q0 -174 -94 -283t-249 -109t-248.5 109t-93.5 283q0 175 93.5 284t248.5 109t249 -109.5t94 -283.5zM614 381q0 126 -60.5 205t-161.5 79t-161 -78.5t-60 -205.5q0 -126 60 -204.5t161 -78.5t161.5 78.5t60.5 204.5z" />
    <glyph glyph-name="Ocircumflex" unicode="&#xd4;" horiz-adv-x="785" 
d="M392 933l-133 -116l-53 65l144 149h85l144 -149l-53 -65zM735 381q0 -174 -94 -283t-249 -109t-248.5 109t-93.5 283q0 175 93.5 284t248.5 109t249 -109.5t94 -283.5zM614 381q0 126 -60.5 205t-161.5 79t-161 -78.5t-60 -205.5q0 -126 60 -204.5t161 -78.5t161.5 78.5
t60.5 204.5z" />
    <glyph glyph-name="Otilde" unicode="&#xd5;" horiz-adv-x="785" 
d="M557 998q7 -72 -16 -110.5t-72 -38.5q-16 0 -34.5 6.5t-53.5 25.5q-25 14 -35.5 18t-17.5 4q-14 0 -19.5 -14t-2.5 -42h-79q-7 72 16.5 110.5t71.5 38.5q17 0 36.5 -6.5t54.5 -25.5q24 -13 33.5 -16.5t16.5 -3.5q14 0 19.5 13.5t2.5 40.5h79zM735 381q0 -174 -94 -283
t-249 -109t-248.5 109t-93.5 283q0 175 93.5 284t248.5 109t249 -109.5t94 -283.5zM614 381q0 126 -60.5 205t-161.5 79t-161 -78.5t-60 -205.5q0 -126 60 -204.5t161 -78.5t161.5 78.5t60.5 204.5z" />
    <glyph glyph-name="Odieresis" unicode="&#xd6;" horiz-adv-x="785" 
d="M595 941q0 -33 -22.5 -55.5t-55.5 -22.5t-55.5 22.5t-22.5 55.5t22.5 55.5t55.5 22.5t55.5 -22.5t22.5 -55.5zM345 941q0 -33 -22.5 -55.5t-55.5 -22.5t-55.5 22.5t-22.5 55.5t22.5 55.5t55.5 22.5t55.5 -22.5t22.5 -55.5zM735 381q0 -174 -94 -283t-249 -109t-248.5 109
t-93.5 283q0 175 93.5 284t248.5 109t249 -109.5t94 -283.5zM614 381q0 126 -60.5 205t-161.5 79t-161 -78.5t-60 -205.5q0 -126 60 -204.5t161 -78.5t161.5 78.5t60.5 204.5z" />
    <glyph glyph-name="multiply" unicode="&#xd7;" horiz-adv-x="666" 
d="M566 114l-75 -74l-158 158l-158 -158l-75 74l159 159l-158 157l74 75l158 -158l158 158l74 -75l-157 -157z" />
    <glyph glyph-name="Oslash" unicode="&#xd8;" horiz-adv-x="785" 
d="M392 -11q-54 0 -101.5 14t-86.5 40l-46 -63l-78 60l52 71q-39 51 -60.5 119.5t-21.5 150.5q0 175 93.5 284t248.5 109q54 0 101.5 -14t86.5 -41l47 64l78 -60l-53 -71q40 -51 61.5 -120t21.5 -151q0 -174 -94 -283t-249 -109zM171 381q0 -49 9.5 -91.5t26.5 -76.5
l305 414q-25 18 -55 28t-65 10q-101 0 -161 -78.5t-60 -205.5zM614 381q0 49 -9.5 91.5t-27.5 76.5l-305 -414q25 -18 55.5 -27.5t64.5 -9.5q101 0 161.5 78.5t60.5 204.5z" />
    <glyph glyph-name="Ugrave" unicode="&#xd9;" horiz-adv-x="762" 
d="M385 823l-237 125l76 101l204 -155zM381 -11q-94 0 -154.5 28.5t-92.5 88.5q-23 43 -33.5 107.5t-10.5 176.5v373h121v-383q0 -83 4.5 -122.5t14.5 -66.5q17 -47 54 -69t98 -22t97.5 22t53.5 69q10 27 14 65.5t4 123.5v383h121v-373q0 -106 -11 -171.5t-35 -110.5
q-32 -61 -92.5 -90t-152.5 -29z" />
    <glyph glyph-name="Uacute" unicode="&#xda;" horiz-adv-x="762" 
d="M601 948l-237 -125l-43 71l204 155zM381 -11q-94 0 -154.5 28.5t-92.5 88.5q-23 43 -33.5 107.5t-10.5 176.5v373h121v-383q0 -83 4.5 -122.5t14.5 -66.5q17 -47 54 -69t98 -22t97.5 22t53.5 69q10 27 14 65.5t4 123.5v383h121v-373q0 -106 -11 -171.5t-35 -110.5
q-32 -61 -92.5 -90t-152.5 -29z" />
    <glyph glyph-name="Ucircumflex" unicode="&#xdb;" horiz-adv-x="762" 
d="M381 933l-133 -116l-53 65l144 149h85l144 -149l-53 -65zM381 -11q-94 0 -154.5 28.5t-92.5 88.5q-23 43 -33.5 107.5t-10.5 176.5v373h121v-383q0 -83 4.5 -122.5t14.5 -66.5q17 -47 54 -69t98 -22t97.5 22t53.5 69q10 27 14 65.5t4 123.5v383h121v-373
q0 -106 -11 -171.5t-35 -110.5q-32 -61 -92.5 -90t-152.5 -29z" />
    <glyph glyph-name="Udieresis" unicode="&#xdc;" horiz-adv-x="762" 
d="M584 941q0 -33 -22.5 -55.5t-55.5 -22.5t-55.5 22.5t-22.5 55.5t22.5 55.5t55.5 22.5t55.5 -22.5t22.5 -55.5zM334 941q0 -33 -22.5 -55.5t-55.5 -22.5t-55.5 22.5t-22.5 55.5t22.5 55.5t55.5 22.5t55.5 -22.5t22.5 -55.5zM381 -11q-94 0 -154.5 28.5t-92.5 88.5
q-23 43 -33.5 107.5t-10.5 176.5v373h121v-383q0 -83 4.5 -122.5t14.5 -66.5q17 -47 54 -69t98 -22t97.5 22t53.5 69q10 27 14 65.5t4 123.5v383h121v-373q0 -106 -11 -171.5t-35 -110.5q-32 -61 -92.5 -90t-152.5 -29z" />
    <glyph glyph-name="Yacute" unicode="&#xdd;" horiz-adv-x="625" 
d="M539 948l-237 -125l-43 71l204 155zM373 348v-348h-120v348l-253 415h136l154 -261q6 -10 11.5 -22.5t10.5 -28.5h3q6 15 11.5 28t11.5 23l151 261h136z" />
    <glyph glyph-name="Thorn" unicode="&#xde;" horiz-adv-x="609" 
d="M273 136h-62v-136h-121v763h121v-114h73q142 0 213.5 -62.5t71.5 -186.5q0 -128 -77 -196t-219 -68zM284 540h-73v-295h62q89 0 132 37t43 111q0 73 -41.5 110t-122.5 37z" />
    <glyph glyph-name="germandbls" unicode="&#xdf;" horiz-adv-x="744" 
d="M121 0v450h-81v95h81q0 119 62.5 187.5t173.5 68.5q93 0 150 -47.5t57 -125.5q0 -38 -14.5 -69.5t-59.5 -73.5q-30 -29 -39 -44.5t-9 -31.5q0 -23 17.5 -41.5t78.5 -46.5q44 -22 65 -35t36 -28q23 -22 34 -48.5t11 -59.5q0 -74 -54 -117.5t-148 -43.5q-47 0 -92 11
t-73 29v107q13 -12 31.5 -22t42.5 -17q20 -7 41 -10t43 -3q48 0 73.5 14.5t25.5 42.5q0 22 -17.5 39.5t-77.5 45.5q-89 40 -118 77t-29 89q0 36 13.5 66.5t56.5 74.5q32 34 42 53t10 40q0 36 -26.5 56t-74.5 20q-61 0 -90 -37t-29 -116v-549h-113z" />
    <glyph glyph-name="agrave" unicode="&#xe0;" horiz-adv-x="566" 
d="M198 901l160 -194l-58 -60l-203 176zM385 51q-26 -28 -67.5 -45t-88.5 -17q-77 0 -123 46t-46 121q0 84 61.5 129.5t176.5 45.5h76q1 3 1 7v14q0 58 -25.5 81t-88.5 23q-41 0 -79.5 -9t-80.5 -29v103q17 8 39.5 14.5t49.5 11.5q23 5 47 7t47 2q108 0 155 -52t47 -167
v-337h-81l-17 50zM310 248q-70 0 -103.5 -20t-33.5 -64q0 -40 22 -61t64 -21q39 0 74.5 17t49.5 40v109h-73z" />
    <glyph glyph-name="aacute" unicode="&#xe1;" horiz-adv-x="566" 
d="M473 822l-203 -176l-58 60l164 197zM385 51q-26 -28 -67.5 -45t-88.5 -17q-77 0 -123 46t-46 121q0 84 61.5 129.5t176.5 45.5h76q1 3 1 7v14q0 58 -25.5 81t-88.5 23q-41 0 -79.5 -9t-80.5 -29v103q17 8 39.5 14.5t49.5 11.5q23 5 47 7t47 2q108 0 155 -52t47 -167v-337
h-81l-17 50zM310 248q-70 0 -103.5 -20t-33.5 -64q0 -40 22 -61t64 -21q39 0 74.5 17t49.5 40v109h-73z" />
    <glyph glyph-name="acircumflex" unicode="&#xe2;" horiz-adv-x="566" 
d="M273 756l-101 -119l-62 51l121 175h85l121 -175l-62 -51zM385 51q-26 -28 -67.5 -45t-88.5 -17q-77 0 -123 46t-46 121q0 84 61.5 129.5t176.5 45.5h76q1 3 1 7v14q0 58 -25.5 81t-88.5 23q-41 0 -79.5 -9t-80.5 -29v103q17 8 39.5 14.5t49.5 11.5q23 5 47 7t47 2
q108 0 155 -52t47 -167v-337h-81l-17 50zM310 248q-70 0 -103.5 -20t-33.5 -64q0 -40 22 -61t64 -21q39 0 74.5 17t49.5 40v109h-73z" />
    <glyph glyph-name="atilde" unicode="&#xe3;" horiz-adv-x="566" 
d="M437 839q1 -87 -26 -133t-75 -43q-20 2 -38.5 12t-43.5 37q-15 16 -21.5 21t-12.5 5q-14 1 -21.5 -17.5t-7.5 -55.5h-82q-1 85 26 131t75 43q22 -2 40.5 -12t43.5 -38q14 -15 20 -19.5t12 -4.5q14 -1 21.5 18t7.5 56h82zM385 51q-26 -28 -67.5 -45t-88.5 -17
q-77 0 -123 46t-46 121q0 84 61.5 129.5t176.5 45.5h76q1 3 1 7v14q0 58 -25.5 81t-88.5 23q-41 0 -79.5 -9t-80.5 -29v103q17 8 39.5 14.5t49.5 11.5q23 5 47 7t47 2q108 0 155 -52t47 -167v-337h-81l-17 50zM310 248q-70 0 -103.5 -20t-33.5 -64q0 -40 22 -61t64 -21
q39 0 74.5 17t49.5 40v109h-73z" />
    <glyph glyph-name="adieresis" unicode="&#xe4;" horiz-adv-x="566" 
d="M383 852q33 0 55.5 -22.5t22.5 -55.5t-22.5 -55.5t-55.5 -22.5t-55.5 22.5t-22.5 55.5t22.5 55.5t55.5 22.5zM163 852q33 0 55.5 -22.5t22.5 -55.5t-22.5 -55.5t-55.5 -22.5t-55.5 22.5t-22.5 55.5t22.5 55.5t55.5 22.5zM385 51q-26 -28 -67.5 -45t-88.5 -17
q-77 0 -123 46t-46 121q0 84 61.5 129.5t176.5 45.5h76q1 3 1 7v14q0 58 -25.5 81t-88.5 23q-41 0 -79.5 -9t-80.5 -29v103q17 8 39.5 14.5t49.5 11.5q23 5 47 7t47 2q108 0 155 -52t47 -167v-337h-81l-17 50zM310 248q-70 0 -103.5 -20t-33.5 -64q0 -40 22 -61t64 -21
q39 0 74.5 17t49.5 40v109h-73z" />
    <glyph glyph-name="aring" unicode="&#xe5;" horiz-adv-x="566" 
d="M273 903q53 0 91 -38t38 -91t-38 -91t-91 -38t-91 38t-38 91t38 91t91 38zM273 829q-25 0 -40 -14.5t-15 -40.5q0 -25 15 -40t40 -15t40 15t15 40t-15 40t-40 15zM385 51q-26 -28 -67.5 -45t-88.5 -17q-77 0 -123 46t-46 121q0 84 61.5 129.5t176.5 45.5h76q1 3 1 7v14
q0 58 -25.5 81t-88.5 23q-41 0 -79.5 -9t-80.5 -29v103q17 8 39.5 14.5t49.5 11.5q23 5 47 7t47 2q108 0 155 -52t47 -167v-337h-81l-17 50zM310 248q-70 0 -103.5 -20t-33.5 -64q0 -40 22 -61t64 -21q39 0 74.5 17t49.5 40v109h-73z" />
    <glyph glyph-name="ae" unicode="&#xe6;" horiz-adv-x="880" 
d="M807 20q-43 -16 -83.5 -23.5t-82.5 -7.5q-69 0 -122 22.5t-88 64.5q-36 -41 -88.5 -64t-110.5 -23q-79 0 -125.5 46.5t-46.5 123.5q0 80 61.5 124t176.5 44h76q1 3 1 8v17q0 54 -24.5 78.5t-78.5 24.5q-47 0 -87.5 -9t-83.5 -29v104q17 8 39 14.5t49 11.5q23 4 46.5 6.5
t46.5 2.5q61 0 102 -17t64 -53q32 33 76 51.5t97 18.5q100 0 154.5 -57t54.5 -159q0 -25 -3 -51t-9 -52h-338q11 -75 52 -111.5t116 -36.5q36 0 76 8.5t83 25.5v-103zM727 355q0 50 -30 80.5t-79 30.5q-59 0 -93.5 -35t-42.5 -104h243q1 3 1.5 9t0.5 19zM173 161
q0 -35 21.5 -55t60.5 -20q42 0 77.5 17t58.5 46q-7 20 -11.5 42t-6.5 46h-63q-71 0 -104 -17.5t-33 -58.5z" />
    <glyph glyph-name="ccedilla" unicode="&#xe7;" horiz-adv-x="494" 
d="M347 -56q0 -59 -37 -91t-98 -32q-18 0 -34 2t-30 6v92q13 -4 25 -6t24 -2q22 0 35.5 11t13.5 30q0 11 -4 22.5t-11 19.5q-85 21 -133 93.5t-48 182.5q0 129 66.5 206.5t180.5 77.5q41 0 81 -9.5t63 -24.5v-108q-18 18 -56.5 29.5t-78.5 11.5q-73 0 -108 -44t-35 -134
q0 -94 35 -140.5t106 -46.5q37 0 77.5 12t62.5 29v-105q-20 -13 -49 -22t-60 -13q6 -11 9 -23t3 -24z" />
    <glyph glyph-name="egrave" unicode="&#xe8;" horiz-adv-x="559" 
d="M220 901l160 -194l-58 -60l-203 176zM486 20q-42 -16 -82 -23.5t-80 -7.5q-129 0 -201.5 73.5t-72.5 206.5q0 131 68 209t184 78q99 0 153 -59.5t54 -165.5q0 -24 -3 -50t-9 -52h-338q10 -71 51 -106t115 -35q37 0 77.5 8.5t83.5 25.5v-102zM407 352q1 52 -29.5 83.5
t-84.5 31.5q-59 0 -94 -39t-40 -111h245q1 8 2 17.5t1 17.5z" />
    <glyph glyph-name="eacute" unicode="&#xe9;" horiz-adv-x="559" 
d="M477 822l-203 -176l-58 60l164 197zM486 20q-42 -16 -82 -23.5t-80 -7.5q-129 0 -201.5 73.5t-72.5 206.5q0 131 68 209t184 78q99 0 153 -59.5t54 -165.5q0 -24 -3 -50t-9 -52h-338q10 -71 51 -106t115 -35q37 0 77.5 8.5t83.5 25.5v-102zM407 352q1 52 -29.5 83.5
t-84.5 31.5q-59 0 -94 -39t-40 -111h245q1 8 2 17.5t1 17.5z" />
    <glyph glyph-name="ecircumflex" unicode="&#xea;" horiz-adv-x="559" 
d="M289 756l-101 -119l-62 51l121 175h85l121 -175l-62 -51zM486 20q-42 -16 -82 -23.5t-80 -7.5q-129 0 -201.5 73.5t-72.5 206.5q0 131 68 209t184 78q99 0 153 -59.5t54 -165.5q0 -24 -3 -50t-9 -52h-338q10 -71 51 -106t115 -35q37 0 77.5 8.5t83.5 25.5v-102zM407 352
q1 52 -29.5 83.5t-84.5 31.5q-59 0 -94 -39t-40 -111h245q1 8 2 17.5t1 17.5z" />
    <glyph glyph-name="edieresis" unicode="&#xeb;" horiz-adv-x="559" 
d="M389 852q33 0 55.5 -22.5t22.5 -55.5t-22.5 -55.5t-55.5 -22.5t-55.5 22.5t-22.5 55.5t22.5 55.5t55.5 22.5zM169 852q33 0 55.5 -22.5t22.5 -55.5t-22.5 -55.5t-55.5 -22.5t-55.5 22.5t-22.5 55.5t22.5 55.5t55.5 22.5zM486 20q-42 -16 -82 -23.5t-80 -7.5
q-129 0 -201.5 73.5t-72.5 206.5q0 131 68 209t184 78q99 0 153 -59.5t54 -165.5q0 -24 -3 -50t-9 -52h-338q10 -71 51 -106t115 -35q37 0 77.5 8.5t83.5 25.5v-102zM407 352q1 52 -29.5 83.5t-84.5 31.5q-59 0 -94 -39t-40 -111h245q1 8 2 17.5t1 17.5z" />
    <glyph glyph-name="igrave" unicode="&#xec;" horiz-adv-x="292" 
d="M65 901l160 -194l-58 -60l-203 176zM202 545v-545h-112v545h112z" />
    <glyph glyph-name="iacute" unicode="&#xed;" horiz-adv-x="292" 
d="M329 822l-203 -176l-58 60l164 197zM202 545v-545h-112v545h112z" />
    <glyph glyph-name="icircumflex" unicode="&#xee;" horiz-adv-x="292" 
d="M146 756l-101 -119l-62 51l121 175h85l121 -175l-62 -51zM202 545v-545h-112v545h112z" />
    <glyph glyph-name="idieresis" unicode="&#xef;" horiz-adv-x="292" 
d="M256 852q33 0 55.5 -22.5t22.5 -55.5t-22.5 -55.5t-55.5 -22.5t-55.5 22.5t-22.5 55.5t22.5 55.5t55.5 22.5zM36 852q33 0 55.5 -22.5t22.5 -55.5t-22.5 -55.5t-55.5 -22.5t-55.5 22.5t-22.5 55.5t22.5 55.5t55.5 22.5zM202 545v-545h-112v545h112z" />
    <glyph glyph-name="eth" unicode="&#xf0;" horiz-adv-x="592" 
d="M542 295q0 -138 -68.5 -222t-186.5 -84q-111 0 -174 73t-63 196q0 120 59.5 193.5t160.5 73.5q30 0 59.5 -7t57.5 -20q-20 36 -47.5 69t-62.5 62l-107 -80l-52 63l92 65q-23 15 -49 28.5t-54 25.5l69 76q32 -15 62 -32t57 -36l93 75l56 -65l-85 -61q87 -78 135 -179.5
t48 -213.5zM164 262q0 -82 34 -126.5t97 -44.5q64 0 98.5 45t34.5 126q0 85 -33 128.5t-97 43.5q-65 0 -99.5 -44.5t-34.5 -127.5z" />
    <glyph glyph-name="ntilde" unicode="&#xf1;" 
d="M474 839q1 -87 -26 -133t-75 -43q-20 2 -38.5 12t-43.5 37q-15 16 -21.5 21t-12.5 5q-14 1 -21.5 -17.5t-7.5 -55.5h-82q-1 85 26 131t75 43q22 -2 40.5 -12t43.5 -38q14 -15 20 -19.5t12 -4.5q14 -1 21.5 18t7.5 56h82zM202 402v-402h-112v545h112v-40l3 -3
q38 27 79 40.5t85 13.5q79 0 120 -44t41 -130v-382h-112v345q0 61 -18 86t-61 25q-39 0 -79.5 -16t-57.5 -38z" />
    <glyph glyph-name="ograve" unicode="&#xf2;" horiz-adv-x="593" 
d="M196 901l160 -194l-58 -60l-203 176zM543 272q0 -127 -67 -205t-180 -78q-112 0 -179 78t-67 205t67 205.5t179 78.5t179.5 -78.5t67.5 -205.5zM430 272q0 84 -36 134t-98 50q-63 0 -98 -49.5t-35 -134.5t35 -134t98 -49q62 0 98 49.5t36 133.5z" />
    <glyph glyph-name="oacute" unicode="&#xf3;" horiz-adv-x="593" 
d="M496 822l-203 -176l-58 60l164 197zM543 272q0 -127 -67 -205t-180 -78q-112 0 -179 78t-67 205t67 205.5t179 78.5t179.5 -78.5t67.5 -205.5zM430 272q0 84 -36 134t-98 50q-63 0 -98 -49.5t-35 -134.5t35 -134t98 -49q62 0 98 49.5t36 133.5z" />
    <glyph glyph-name="ocircumflex" unicode="&#xf4;" horiz-adv-x="593" 
d="M296 756l-101 -119l-62 51l121 175h85l121 -175l-62 -51zM543 272q0 -127 -67 -205t-180 -78q-112 0 -179 78t-67 205t67 205.5t179 78.5t179.5 -78.5t67.5 -205.5zM430 272q0 84 -36 134t-98 50q-63 0 -98 -49.5t-35 -134.5t35 -134t98 -49q62 0 98 49.5t36 133.5z" />
    <glyph glyph-name="otilde" unicode="&#xf5;" horiz-adv-x="593" 
d="M460 839q1 -87 -26 -133t-75 -43q-20 2 -38.5 12t-43.5 37q-15 16 -21.5 21t-12.5 5q-14 1 -21.5 -17.5t-7.5 -55.5h-82q-1 85 26 131t75 43q22 -2 40.5 -12t43.5 -38q14 -15 20 -19.5t12 -4.5q14 -1 21.5 18t7.5 56h82zM543 272q0 -127 -67 -205t-180 -78
q-112 0 -179 78t-67 205t67 205.5t179 78.5t179.5 -78.5t67.5 -205.5zM430 272q0 84 -36 134t-98 50q-63 0 -98 -49.5t-35 -134.5t35 -134t98 -49q62 0 98 49.5t36 133.5z" />
    <glyph glyph-name="odieresis" unicode="&#xf6;" horiz-adv-x="593" 
d="M406 852q33 0 55.5 -22.5t22.5 -55.5t-22.5 -55.5t-55.5 -22.5t-55.5 22.5t-22.5 55.5t22.5 55.5t55.5 22.5zM186 852q33 0 55.5 -22.5t22.5 -55.5t-22.5 -55.5t-55.5 -22.5t-55.5 22.5t-22.5 55.5t22.5 55.5t55.5 22.5zM543 272q0 -127 -67 -205t-180 -78
q-112 0 -179 78t-67 205t67 205.5t179 78.5t179.5 -78.5t67.5 -205.5zM430 272q0 84 -36 134t-98 50q-63 0 -98 -49.5t-35 -134.5t35 -134t98 -49q62 0 98 49.5t36 133.5z" />
    <glyph glyph-name="divide" unicode="&#xf7;" horiz-adv-x="724" 
d="M440 498q0 -32 -23 -55t-55 -23t-55 23t-23 55t23 55t55 23t55 -23t23 -55zM624 323v-101h-524v101h524zM440 47q0 -32 -23 -55t-55 -23t-55 23t-23 55t23 55t55 23t55 -23t23 -55z" />
    <glyph glyph-name="oslash" unicode="&#xf8;" horiz-adv-x="593" 
d="M296 -11q-37 0 -70 9t-60 26l-32 -44l-65 45l38 53q-27 36 -42 85.5t-15 108.5q0 127 67 205.5t179 78.5q38 0 71 -9.5t60 -26.5l33 45l65 -45l-39 -54q27 -37 42 -86.5t15 -107.5q0 -127 -67 -205t-180 -78zM163 272q0 -28 4 -52t11 -44l188 259q-15 10 -32.5 15.5
t-37.5 5.5q-63 0 -98 -49.5t-35 -134.5zM430 272q0 27 -4 51t-11 44l-188 -258q15 -10 32 -15t37 -5q62 0 98 49.5t36 133.5z" />
    <glyph glyph-name="ugrave" unicode="&#xf9;" 
d="M231 901l160 -194l-58 -60l-203 176zM415 43q-38 -27 -79 -40.5t-85 -13.5q-79 0 -120 44t-41 130v382h112v-345q0 -61 18 -86t61 -25q38 0 79.5 16t57.5 38v402h112v-545h-112v40z" />
    <glyph glyph-name="uacute" unicode="&#xfa;" 
d="M516 822l-203 -176l-58 60l164 197zM415 43q-38 -27 -79 -40.5t-85 -13.5q-79 0 -120 44t-41 130v382h112v-345q0 -61 18 -86t61 -25q38 0 79.5 16t57.5 38v402h112v-545h-112v40z" />
    <glyph glyph-name="ucircumflex" unicode="&#xfb;" 
d="M310 756l-101 -119l-62 51l121 175h85l121 -175l-62 -51zM415 43q-38 -27 -79 -40.5t-85 -13.5q-79 0 -120 44t-41 130v382h112v-345q0 -61 18 -86t61 -25q38 0 79.5 16t57.5 38v402h112v-545h-112v40z" />
    <glyph glyph-name="udieresis" unicode="&#xfc;" 
d="M420 852q33 0 55.5 -22.5t22.5 -55.5t-22.5 -55.5t-55.5 -22.5t-55.5 22.5t-22.5 55.5t22.5 55.5t55.5 22.5zM200 852q33 0 55.5 -22.5t22.5 -55.5t-22.5 -55.5t-55.5 -22.5t-55.5 22.5t-22.5 55.5t22.5 55.5t55.5 22.5zM415 43q-38 -27 -79 -40.5t-85 -13.5
q-79 0 -120 44t-41 130v382h112v-345q0 -61 18 -86t61 -25q38 0 79.5 16t57.5 38v402h112v-545h-112v40z" />
    <glyph glyph-name="yacute" unicode="&#xfd;" horiz-adv-x="522" 
d="M452 822l-203 -176l-58 60l164 197zM317 0q-46 -130 -98.5 -177.5t-143.5 -55.5q-7 -1 -16 -1h-28v100q8 0 17 0.5t21 1.5q58 8 91.5 40.5t44.5 91.5l-195 545h123l107 -337q12 -36 17 -56t3 -25h3q-1 5 4 25t16 56l106 337h123z" />
    <glyph glyph-name="thorn" unicode="&#xfe;" horiz-adv-x="602" 
d="M90 791h113v-285l3 -3q25 25 60 39t74 14q95 0 153.5 -78t58.5 -199q0 -129 -67 -209.5t-177 -80.5q-33 0 -58.5 6t-43.5 18l-3 -3v-234h-113v1015zM309 457q-35 0 -64.5 -16.5t-41.5 -40.5v-285q15 -12 38.5 -18.5t50.5 -6.5q70 0 108.5 47.5t38.5 135.5q0 85 -35 134.5
t-95 49.5z" />
    <glyph glyph-name="ydieresis" unicode="&#xff;" horiz-adv-x="522" 
d="M371 852q33 0 55.5 -22.5t22.5 -55.5t-22.5 -55.5t-55.5 -22.5t-55.5 22.5t-22.5 55.5t22.5 55.5t55.5 22.5zM151 852q33 0 55.5 -22.5t22.5 -55.5t-22.5 -55.5t-55.5 -22.5t-55.5 22.5t-22.5 55.5t22.5 55.5t55.5 22.5zM317 0q-46 -130 -98.5 -177.5t-143.5 -55.5
q-7 -1 -16 -1h-28v100q8 0 17 0.5t21 1.5q58 8 91.5 40.5t44.5 91.5l-195 545h123l107 -337q12 -36 17 -56t3 -25h3q-1 5 4 25t16 56l106 337h123z" />
    <glyph glyph-name="Amacron" unicode="&#x100;" horiz-adv-x="685" 
d="M523 975v-92h-362v92h362zM208 175l-52 -175h-126l243 763h141l241 -763h-126l-52 175h-269zM342 642q-11 -46 -24 -93t-26 -91l-51 -174h204l-50 175q-14 49 -27.5 98t-22.5 85h-3z" />
    <glyph glyph-name="amacron" unicode="&#x101;" horiz-adv-x="566" 
d="M434 791v-92h-322v92h322zM385 51q-26 -28 -67.5 -45t-88.5 -17q-77 0 -123 46t-46 121q0 84 61.5 129.5t176.5 45.5h76q1 3 1 7v14q0 58 -25.5 81t-88.5 23q-41 0 -79.5 -9t-80.5 -29v103q17 8 39.5 14.5t49.5 11.5q23 5 47 7t47 2q108 0 155 -52t47 -167v-337h-81
l-17 50zM310 248q-70 0 -103.5 -20t-33.5 -64q0 -40 22 -61t64 -21q39 0 74.5 17t49.5 40v109h-73z" />
    <glyph glyph-name="Abreve" unicode="&#x102;" horiz-adv-x="685" 
d="M522 1004q0 -81 -48 -131t-132 -50t-132 50t-48 131h83q2 -42 27.5 -66.5t69.5 -24.5t69.5 24.5t27.5 66.5h83zM208 175l-52 -175h-126l243 763h141l241 -763h-126l-52 175h-269zM342 642q-11 -46 -24 -93t-26 -91l-51 -174h204l-50 175q-14 49 -27.5 98t-22.5 85h-3z
" />
    <glyph glyph-name="abreve" unicode="&#x103;" horiz-adv-x="566" 
d="M433 832q0 -81 -43 -131t-117 -50t-117 50t-43 131h83q2 -43 22 -67t55 -24t55 24t22 67h83zM385 51q-26 -28 -67.5 -45t-88.5 -17q-77 0 -123 46t-46 121q0 84 61.5 129.5t176.5 45.5h76q1 3 1 7v14q0 58 -25.5 81t-88.5 23q-41 0 -79.5 -9t-80.5 -29v103
q17 8 39.5 14.5t49.5 11.5q23 5 47 7t47 2q108 0 155 -52t47 -167v-337h-81l-17 50zM310 248q-70 0 -103.5 -20t-33.5 -64q0 -40 22 -61t64 -21q39 0 74.5 17t49.5 40v109h-73z" />
    <glyph glyph-name="Aogonek" unicode="&#x104;" horiz-adv-x="685" 
d="M640 -214q-16 -10 -39.5 -15.5t-46.5 -5.5q-46 0 -74 27.5t-28 72.5q0 37 18.5 70t58.5 65l-52 175h-269l-52 -175h-126l243 763h141l241 -763h-14q-38 -22 -61 -53t-23 -60q0 -16 10.5 -25t28.5 -9q11 0 23 3.5t21 9.5v-80zM342 642q-11 -46 -24 -93t-26 -91l-51 -174
h204l-50 175q-14 49 -27.5 98t-22.5 85h-3z" />
    <glyph glyph-name="aogonek" unicode="&#x105;" horiz-adv-x="566" 
d="M485 -214q-16 -10 -39.5 -15.5t-46.5 -5.5q-46 0 -74 27.5t-28 72.5q0 37 18.5 70t58.5 65q5 5 11 9.5t14 8.5l-11 32l-3 1q-26 -28 -67.5 -45t-88.5 -17q-77 0 -123 46t-46 121q0 84 61.5 129.5t176.5 45.5h76q1 3 1 7v14q0 58 -25.5 81t-88.5 23q-41 0 -79.5 -9
t-80.5 -29v103q17 8 39.5 14.5t49.5 11.5q23 5 47 7t47 2q108 0 155 -52t47 -167v-337q-38 -22 -61 -53t-23 -60q0 -16 10.5 -25t28.5 -9q11 0 23 3.5t21 9.5v-80zM310 248q-70 0 -103.5 -20t-33.5 -64q0 -40 22 -61t64 -21q39 0 74.5 17t49.5 40v109h-73z" />
    <glyph glyph-name="Cacute" unicode="&#x106;" horiz-adv-x="629" 
d="M564 948l-237 -125l-43 71l204 155zM171 382q0 -131 58.5 -207t157.5 -76q47 0 99.5 17t92.5 46v-117q-39 -25 -95 -40.5t-111 -15.5q-145 0 -234 110t-89 282q0 173 91.5 283t240.5 110q54 0 107 -14t85 -38v-117q-42 29 -89 44.5t-92 15.5q-102 0 -162 -75.5
t-60 -207.5z" />
    <glyph glyph-name="cacute" unicode="&#x107;" horiz-adv-x="494" 
d="M486 822l-203 -176l-58 60l164 197zM444 26q-26 -17 -66.5 -27t-81.5 -10q-114 0 -180 77t-66 206t66.5 206.5t180.5 77.5q41 0 81 -9.5t63 -24.5v-108q-18 18 -56.5 29.5t-78.5 11.5q-73 0 -108 -44t-35 -134q0 -94 35 -140.5t106 -46.5q37 0 77.5 12t62.5 29v-105z" />
    <glyph glyph-name="Ccircumflex" unicode="&#x108;" horiz-adv-x="629" 
d="M377 933l-133 -116l-53 65l144 149h85l144 -149l-53 -65zM171 382q0 -131 58.5 -207t157.5 -76q47 0 99.5 17t92.5 46v-117q-39 -25 -95 -40.5t-111 -15.5q-145 0 -234 110t-89 282q0 173 91.5 283t240.5 110q54 0 107 -14t85 -38v-117q-42 29 -89 44.5t-92 15.5
q-102 0 -162 -75.5t-60 -207.5z" />
    <glyph glyph-name="ccircumflex" unicode="&#x109;" horiz-adv-x="494" 
d="M286 756l-101 -119l-62 51l121 175h85l121 -175l-62 -51zM444 26q-26 -17 -66.5 -27t-81.5 -10q-114 0 -180 77t-66 206t66.5 206.5t180.5 77.5q41 0 81 -9.5t63 -24.5v-108q-18 18 -56.5 29.5t-78.5 11.5q-73 0 -108 -44t-35 -134q0 -94 35 -140.5t106 -46.5
q37 0 77.5 12t62.5 29v-105z" />
    <glyph glyph-name="Cdotaccent" unicode="&#x10a;" horiz-adv-x="629" 
d="M445 941q0 -33 -22.5 -55.5t-55.5 -22.5t-55.5 22.5t-22.5 55.5t22.5 55.5t55.5 22.5t55.5 -22.5t22.5 -55.5zM171 382q0 -131 58.5 -207t157.5 -76q47 0 99.5 17t92.5 46v-117q-39 -25 -95 -40.5t-111 -15.5q-145 0 -234 110t-89 282q0 173 91.5 283t240.5 110
q54 0 107 -14t85 -38v-117q-42 29 -89 44.5t-92 15.5q-102 0 -162 -75.5t-60 -207.5z" />
    <glyph glyph-name="cdotaccent" unicode="&#x10b;" horiz-adv-x="494" 
d="M369 751q0 -33 -22.5 -55.5t-55.5 -22.5t-55.5 22.5t-22.5 55.5t22.5 55.5t55.5 22.5t55.5 -22.5t22.5 -55.5zM444 26q-26 -17 -66.5 -27t-81.5 -10q-114 0 -180 77t-66 206t66.5 206.5t180.5 77.5q41 0 81 -9.5t63 -24.5v-108q-18 18 -56.5 29.5t-78.5 11.5
q-73 0 -108 -44t-35 -134q0 -94 35 -140.5t106 -46.5q37 0 77.5 12t62.5 29v-105z" />
    <glyph glyph-name="Ccaron" unicode="&#x10c;" horiz-adv-x="629" 
d="M374 916l133 116l53 -65l-144 -149h-85l-144 149l53 65zM171 382q0 -131 58.5 -207t157.5 -76q47 0 99.5 17t92.5 46v-117q-39 -25 -95 -40.5t-111 -15.5q-145 0 -234 110t-89 282q0 173 91.5 283t240.5 110q54 0 107 -14t85 -38v-117q-42 29 -89 44.5t-92 15.5
q-102 0 -162 -75.5t-60 -207.5z" />
    <glyph glyph-name="ccaron" unicode="&#x10d;" horiz-adv-x="494" 
d="M273 748l101 119l62 -51l-121 -175h-85l-121 175l62 51zM444 26q-26 -17 -66.5 -27t-81.5 -10q-114 0 -180 77t-66 206t66.5 206.5t180.5 77.5q41 0 81 -9.5t63 -24.5v-108q-18 18 -56.5 29.5t-78.5 11.5q-73 0 -108 -44t-35 -134q0 -94 35 -140.5t106 -46.5
q37 0 77.5 12t62.5 29v-105z" />
    <glyph glyph-name="Dcaron" unicode="&#x10e;" horiz-adv-x="724" 
d="M337 916l133 116l53 -65l-144 -149h-85l-144 149l53 65zM674 381q0 -168 -93 -274.5t-246 -106.5h-245v763h234q160 0 255 -106t95 -276zM324 654h-113v-545h124q99 0 159 76t60 197q0 123 -62 197.5t-168 74.5z" />
    <glyph glyph-name="dcaron" unicode="&#x10f;" horiz-adv-x="602" 
d="M741 880l-94 -252l-80 25l51 252zM396 42q-24 -25 -59.5 -39t-74.5 -14q-94 0 -153 78t-59 200q0 129 66.5 209t177.5 80q35 0 60.5 -6t41.5 -19l3 3v257h113v-791h-113v39zM399 429q-15 12 -39 19t-50 7q-69 0 -108 -48.5t-39 -135.5q0 -84 35 -133.5t95 -49.5
q34 0 63 16t43 41v284z" />
    <glyph glyph-name="Dcroat" unicode="&#x110;" horiz-adv-x="724" 
d="M674 381q0 -168 -93 -274.5t-246 -106.5h-245v342h-60v101h60v320h234q160 0 255 -106t95 -276zM211 109h124q99 0 159 76t60 197q0 123 -62 197.5t-168 74.5h-113v-211h155v-101h-155v-233z" />
    <glyph glyph-name="dcroat" unicode="&#x111;" horiz-adv-x="602" 
d="M396 42q-24 -25 -59.5 -39t-74.5 -14q-94 0 -153 78t-59 200q0 129 66.5 209t177.5 80q35 0 60.5 -6t41.5 -19l3 3v80h-180v96h180v81h113v-81h70v-96h-70v-614h-113v39zM399 429q-15 12 -39 19t-50 7q-69 0 -108 -48.5t-39 -135.5q0 -84 35 -133.5t95 -49.5q34 0 63 16
t43 41v284z" />
    <glyph glyph-name="Emacron" unicode="&#x112;" horiz-adv-x="573" 
d="M477 975v-92h-362v92h362zM503 109v-109h-413v763h401v-109h-280v-207h265v-109h-265v-229h292z" />
    <glyph glyph-name="emacron" unicode="&#x113;" horiz-adv-x="559" 
d="M452 791v-92h-322v92h322zM486 20q-42 -16 -82 -23.5t-80 -7.5q-129 0 -201.5 73.5t-72.5 206.5q0 131 68 209t184 78q99 0 153 -59.5t54 -165.5q0 -24 -3 -50t-9 -52h-338q10 -71 51 -106t115 -35q37 0 77.5 8.5t83.5 25.5v-102zM407 352q1 52 -29.5 83.5t-84.5 31.5
q-59 0 -94 -39t-40 -111h245q1 8 2 17.5t1 17.5z" />
    <glyph glyph-name="Ebreve" unicode="&#x114;" horiz-adv-x="573" 
d="M476 1004q0 -81 -48 -131t-132 -50t-132 50t-48 131h83q2 -42 27.5 -66.5t69.5 -24.5t69.5 24.5t27.5 66.5h83zM503 109v-109h-413v763h401v-109h-280v-207h265v-109h-265v-229h292z" />
    <glyph glyph-name="ebreve" unicode="&#x115;" horiz-adv-x="559" 
d="M439 832q0 -81 -43 -131t-117 -50t-117 50t-43 131h83q2 -43 22 -67t55 -24t55 24t22 67h83zM486 20q-42 -16 -82 -23.5t-80 -7.5q-129 0 -201.5 73.5t-72.5 206.5q0 131 68 209t184 78q99 0 153 -59.5t54 -165.5q0 -24 -3 -50t-9 -52h-338q10 -71 51 -106t115 -35
q37 0 77.5 8.5t83.5 25.5v-102zM407 352q1 52 -29.5 83.5t-84.5 31.5q-59 0 -94 -39t-40 -111h245q1 8 2 17.5t1 17.5z" />
    <glyph glyph-name="Edotaccent" unicode="&#x116;" horiz-adv-x="573" 
d="M374 941q0 -33 -22.5 -55.5t-55.5 -22.5t-55.5 22.5t-22.5 55.5t22.5 55.5t55.5 22.5t55.5 -22.5t22.5 -55.5zM503 109v-109h-413v763h401v-109h-280v-207h265v-109h-265v-229h292z" />
    <glyph glyph-name="edotaccent" unicode="&#x117;" horiz-adv-x="559" 
d="M368 751q0 -33 -22.5 -55.5t-55.5 -22.5t-55.5 22.5t-22.5 55.5t22.5 55.5t55.5 22.5t55.5 -22.5t22.5 -55.5zM486 20q-42 -16 -82 -23.5t-80 -7.5q-129 0 -201.5 73.5t-72.5 206.5q0 131 68 209t184 78q99 0 153 -59.5t54 -165.5q0 -24 -3 -50t-9 -52h-338
q10 -71 51 -106t115 -35q37 0 77.5 8.5t83.5 25.5v-102zM407 352q1 52 -29.5 83.5t-84.5 31.5q-59 0 -94 -39t-40 -111h245q1 8 2 17.5t1 17.5z" />
    <glyph glyph-name="Eogonek" unicode="&#x118;" horiz-adv-x="573" 
d="M502 -214q-16 -10 -39.5 -15.5t-46.5 -5.5q-46 0 -74 27.5t-28 72.5q0 37 18.5 70t58.5 65h-301v763h401v-109h-280v-207h265v-109h-265v-229h292v-109q-38 -22 -61 -53t-23 -60q0 -16 10.5 -25t28.5 -9q11 0 23 3.5t21 9.5v-80z" />
    <glyph glyph-name="eogonek" unicode="&#x119;" horiz-adv-x="559" 
d="M418 -214q-16 -10 -39.5 -15.5t-46.5 -5.5q-46 0 -74 27.5t-28 72.5q0 34 15.5 64.5t49.5 60.5q-116 8 -180.5 81t-64.5 198q0 131 68 209t184 78q99 0 153 -59.5t54 -165.5q0 -24 -3 -50t-9 -52h-338q10 -71 51 -106t115 -35q37 0 77.5 8.5t83.5 25.5v-102
q-17 -7 -34.5 -12t-33.5 -9q-38 -22 -60.5 -52.5t-22.5 -59.5q0 -16 10.5 -25t28.5 -9q11 0 23 3.5t21 9.5v-80zM407 352q1 52 -29.5 83.5t-84.5 31.5q-59 0 -94 -39t-40 -111h245q1 8 2 17.5t1 17.5z" />
    <glyph glyph-name="Ecaron" unicode="&#x11a;" horiz-adv-x="573" 
d="M297 916l133 116l53 -65l-144 -149h-85l-144 149l53 65zM503 109v-109h-413v763h401v-109h-280v-207h265v-109h-265v-229h292z" />
    <glyph glyph-name="ecaron" unicode="&#x11b;" horiz-adv-x="559" 
d="M290 748l101 119l62 -51l-121 -175h-85l-121 175l62 51zM486 20q-42 -16 -82 -23.5t-80 -7.5q-129 0 -201.5 73.5t-72.5 206.5q0 131 68 209t184 78q99 0 153 -59.5t54 -165.5q0 -24 -3 -50t-9 -52h-338q10 -71 51 -106t115 -35q37 0 77.5 8.5t83.5 25.5v-102zM407 352
q1 52 -29.5 83.5t-84.5 31.5q-59 0 -94 -39t-40 -111h245q1 8 2 17.5t1 17.5z" />
    <glyph glyph-name="Gcircumflex" unicode="&#x11c;" horiz-adv-x="723" 
d="M390 933l-133 -116l-53 65l144 149h85l144 -149l-53 -65zM361 390h272v-347q-59 -26 -121.5 -40t-118.5 -14q-158 0 -250.5 104t-92.5 288q0 185 94.5 289t255.5 104q53 0 108.5 -11.5t109.5 -34.5v-118q-54 27 -109.5 41t-104.5 14q-112 0 -173 -73.5t-61 -211.5
q0 -139 61.5 -213t173.5 -74q29 0 57.5 5t50.5 14v169h-152v109z" />
    <glyph glyph-name="gcircumflex" unicode="&#x11d;" horiz-adv-x="587" 
d="M293 756l-101 -119l-62 51l121 175h85l121 -175l-62 -51zM60 -85q0 33 15.5 62t39.5 44q-22 11 -33 31t-11 47q0 30 13.5 65t42.5 78q-25 25 -38.5 58t-13.5 70q0 82 57 134t155 52q38 0 70.5 -8t57.5 -24l124 32v-105h-58q9 -19 13.5 -39t4.5 -42q0 -83 -57 -134.5
t-155 -51.5q-27 0 -50.5 4t-42.5 11q-12 -24 -16 -38t-4 -28q0 -24 13 -32.5t56 -8.5h130q83 0 128.5 -39t45.5 -108q0 -85 -68 -132.5t-184 -47.5q-106 0 -170.5 42t-64.5 108zM391 370q0 45 -27 69.5t-77 24.5t-77 -24.5t-27 -69.5t27 -69.5t77 -24.5t77 24.5t27 69.5z
M217 0h-16t-9 1q-11 -13 -17.5 -29t-6.5 -33q0 -39 34.5 -60.5t98.5 -21.5q65 0 101.5 21t36.5 61q0 31 -23.5 46t-70.5 15h-128z" />
    <glyph glyph-name="Gbreve" unicode="&#x11e;" horiz-adv-x="723" 
d="M570 1004q0 -81 -48 -131t-132 -50t-132 50t-48 131h83q2 -42 27.5 -66.5t69.5 -24.5t69.5 24.5t27.5 66.5h83zM361 390h272v-347q-59 -26 -121.5 -40t-118.5 -14q-158 0 -250.5 104t-92.5 288q0 185 94.5 289t255.5 104q53 0 108.5 -11.5t109.5 -34.5v-118
q-54 27 -109.5 41t-104.5 14q-112 0 -173 -73.5t-61 -211.5q0 -139 61.5 -213t173.5 -74q29 0 57.5 5t50.5 14v169h-152v109z" />
    <glyph glyph-name="gbreve" unicode="&#x11f;" horiz-adv-x="587" 
d="M453 832q0 -81 -43 -131t-117 -50t-117 50t-43 131h83q2 -43 22 -67t55 -24t55 24t22 67h83zM60 -85q0 33 15.5 62t39.5 44q-22 11 -33 31t-11 47q0 30 13.5 65t42.5 78q-25 25 -38.5 58t-13.5 70q0 82 57 134t155 52q38 0 70.5 -8t57.5 -24l124 32v-105h-58
q9 -19 13.5 -39t4.5 -42q0 -83 -57 -134.5t-155 -51.5q-27 0 -50.5 4t-42.5 11q-12 -24 -16 -38t-4 -28q0 -24 13 -32.5t56 -8.5h130q83 0 128.5 -39t45.5 -108q0 -85 -68 -132.5t-184 -47.5q-106 0 -170.5 42t-64.5 108zM391 370q0 45 -27 69.5t-77 24.5t-77 -24.5
t-27 -69.5t27 -69.5t77 -24.5t77 24.5t27 69.5zM217 0h-16t-9 1q-11 -13 -17.5 -29t-6.5 -33q0 -39 34.5 -60.5t98.5 -21.5q65 0 101.5 21t36.5 61q0 31 -23.5 46t-70.5 15h-128z" />
    <glyph glyph-name="Gdotaccent" unicode="&#x120;" horiz-adv-x="723" 
d="M477 941q0 -33 -22.5 -55.5t-55.5 -22.5t-55.5 22.5t-22.5 55.5t22.5 55.5t55.5 22.5t55.5 -22.5t22.5 -55.5zM361 390h272v-347q-59 -26 -121.5 -40t-118.5 -14q-158 0 -250.5 104t-92.5 288q0 185 94.5 289t255.5 104q53 0 108.5 -11.5t109.5 -34.5v-118
q-54 27 -109.5 41t-104.5 14q-112 0 -173 -73.5t-61 -211.5q0 -139 61.5 -213t173.5 -74q29 0 57.5 5t50.5 14v169h-152v109z" />
    <glyph glyph-name="gdotaccent" unicode="&#x121;" horiz-adv-x="587" 
d="M371 751q0 -33 -22.5 -55.5t-55.5 -22.5t-55.5 22.5t-22.5 55.5t22.5 55.5t55.5 22.5t55.5 -22.5t22.5 -55.5zM60 -85q0 33 15.5 62t39.5 44q-22 11 -33 31t-11 47q0 30 13.5 65t42.5 78q-25 25 -38.5 58t-13.5 70q0 82 57 134t155 52q38 0 70.5 -8t57.5 -24l124 32v-105
h-58q9 -19 13.5 -39t4.5 -42q0 -83 -57 -134.5t-155 -51.5q-27 0 -50.5 4t-42.5 11q-12 -24 -16 -38t-4 -28q0 -24 13 -32.5t56 -8.5h130q83 0 128.5 -39t45.5 -108q0 -85 -68 -132.5t-184 -47.5q-106 0 -170.5 42t-64.5 108zM391 370q0 45 -27 69.5t-77 24.5t-77 -24.5
t-27 -69.5t27 -69.5t77 -24.5t77 24.5t27 69.5zM217 0h-16t-9 1q-11 -13 -17.5 -29t-6.5 -33q0 -39 34.5 -60.5t98.5 -21.5q65 0 101.5 21t36.5 61q0 31 -23.5 46t-70.5 15h-128z" />
    <glyph glyph-name="Gcommaaccent" unicode="&#x122;" horiz-adv-x="723" 
d="M361 390h272v-347q-59 -26 -121.5 -40t-118.5 -14q-158 0 -250.5 104t-92.5 288q0 185 94.5 289t255.5 104q53 0 108.5 -11.5t109.5 -34.5v-118q-54 27 -109.5 41t-104.5 14q-112 0 -173 -73.5t-61 -211.5q0 -139 61.5 -213t173.5 -74q29 0 57.5 5t50.5 14v169h-152v109z
M476 -134l-154 -117l-58 60l115 138z" />
    <glyph glyph-name="gcommaaccent" unicode="&#x123;" horiz-adv-x="587" 
d="M195 729l203 176l58 -60l-164 -197zM60 -85q0 33 15.5 62t39.5 44q-22 11 -33 31t-11 47q0 30 13.5 65t42.5 78q-25 25 -38.5 58t-13.5 70q0 82 57 134t155 52q38 0 70.5 -8t57.5 -24l124 32v-105h-58q9 -19 13.5 -39t4.5 -42q0 -83 -57 -134.5t-155 -51.5q-27 0 -50.5 4
t-42.5 11q-12 -24 -16 -38t-4 -28q0 -24 13 -32.5t56 -8.5h130q83 0 128.5 -39t45.5 -108q0 -85 -68 -132.5t-184 -47.5q-106 0 -170.5 42t-64.5 108zM391 370q0 45 -27 69.5t-77 24.5t-77 -24.5t-27 -69.5t27 -69.5t77 -24.5t77 24.5t27 69.5zM217 0h-16t-9 1
q-11 -13 -17.5 -29t-6.5 -33q0 -39 34.5 -60.5t98.5 -21.5q65 0 101.5 21t36.5 61q0 31 -23.5 46t-70.5 15h-128z" />
    <glyph glyph-name="Hcircumflex" unicode="&#x124;" horiz-adv-x="762" 
d="M381 933l-133 -116l-53 65l144 149h85l144 -149l-53 -65zM211 338v-338h-121v763h121v-316h340v316h121v-763h-121v338h-340z" />
    <glyph glyph-name="hcircumflex" unicode="&#x125;" 
d="M143 952l-101 -119l-62 51l121 175h85l121 -175l-62 -51zM202 402v-402h-112v791h112v-286l3 -3q39 28 79.5 41t83.5 13q80 0 121 -44t41 -130v-382h-112v345q0 60 -18.5 85.5t-61.5 25.5q-38 0 -79 -16t-57 -38z" />
    <glyph glyph-name="Hbar" unicode="&#x126;" horiz-adv-x="762" 
d="M211 338v-338h-121v545h-60v109h60v109h121v-109h340v109h121v-109h60v-109h-60v-545h-121v338h-340zM211 447h340v98h-340v-98z" />
    <glyph glyph-name="hbar" unicode="&#x127;" 
d="M202 402v-402h-112v614h-70v96h70v81h112v-81h181v-96h-181v-109l3 -3q39 28 79.5 41t83.5 13q80 0 121 -44t41 -130v-382h-112v345q0 60 -18.5 85.5t-61.5 25.5q-38 0 -79 -16t-57 -38z" />
    <glyph glyph-name="Itilde" unicode="&#x128;" horiz-adv-x="494" 
d="M412 998q7 -72 -16 -110.5t-72 -38.5q-16 0 -34.5 6.5t-53.5 25.5q-25 14 -35.5 18t-17.5 4q-14 0 -19.5 -14t-2.5 -42h-79q-7 72 16.5 110.5t71.5 38.5q17 0 36.5 -6.5t54.5 -25.5q24 -13 33.5 -16.5t16.5 -3.5q14 0 19.5 13.5t2.5 40.5h79zM424 109v-109h-354v109h117
v545h-117v109h354v-109h-117v-545h117z" />
    <glyph glyph-name="itilde" unicode="&#x129;" horiz-adv-x="292" 
d="M310 839q1 -87 -26 -133t-75 -43q-20 2 -38.5 12t-43.5 37q-15 16 -21.5 21t-12.5 5q-14 1 -21.5 -17.5t-7.5 -55.5h-82q-1 85 26 131t75 43q22 -2 40.5 -12t43.5 -38q14 -15 20 -19.5t12 -4.5q14 -1 21.5 18t7.5 56h82zM202 545v-545h-112v545h112z" />
    <glyph glyph-name="Imacron" unicode="&#x12a;" horiz-adv-x="494" 
d="M428 975v-92h-362v92h362zM424 109v-109h-354v109h117v545h-117v109h354v-109h-117v-545h117z" />
    <glyph glyph-name="imacron" unicode="&#x12b;" horiz-adv-x="292" 
d="M307 791v-92h-322v92h322zM202 545v-545h-112v545h112z" />
    <glyph glyph-name="Ibreve" unicode="&#x12c;" horiz-adv-x="494" 
d="M427 1004q0 -81 -48 -131t-132 -50t-132 50t-48 131h83q2 -42 27.5 -66.5t69.5 -24.5t69.5 24.5t27.5 66.5h83zM424 109v-109h-354v109h117v545h-117v109h354v-109h-117v-545h117z" />
    <glyph glyph-name="ibreve" unicode="&#x12d;" horiz-adv-x="292" 
d="M306 832q0 -81 -43 -131t-117 -50t-117 50t-43 131h83q2 -43 22 -67t55 -24t55 24t22 67h83zM202 545v-545h-112v545h112z" />
    <glyph glyph-name="Iogonek" unicode="&#x12e;" horiz-adv-x="494" 
d="M347 -214q-16 -10 -39.5 -15.5t-46.5 -5.5q-46 0 -74 27.5t-28 72.5q0 37 18.5 70t58.5 65h-166v109h117v545h-117v109h354v-109h-117v-545h117v-109h-76q-38 -22 -61 -53t-23 -60q0 -16 10.5 -25t28.5 -9q11 0 23 3.5t21 9.5v-80z" />
    <glyph glyph-name="iogonek" unicode="&#x12f;" horiz-adv-x="292" 
d="M224 751q0 -33 -22.5 -55.5t-55.5 -22.5t-55.5 22.5t-22.5 55.5t22.5 55.5t55.5 22.5t55.5 -22.5t22.5 -55.5zM201 -214q-16 -10 -39.5 -15.5t-46.5 -5.5q-46 0 -74 27.5t-28 72.5q0 37 18.5 70t58.5 65v545h112v-545q-38 -22 -61 -53t-23 -60q0 -16 10.5 -25t28.5 -9
q11 0 23 3.5t21 9.5v-80z" />
    <glyph glyph-name="Idotaccent" unicode="&#x130;" horiz-adv-x="494" 
d="M325 941q0 -33 -22.5 -55.5t-55.5 -22.5t-55.5 22.5t-22.5 55.5t22.5 55.5t55.5 22.5t55.5 -22.5t22.5 -55.5zM424 109v-109h-354v109h117v545h-117v109h354v-109h-117v-545h117z" />
    <glyph glyph-name="dotlessi" unicode="&#x131;" horiz-adv-x="292" 
d="M202 545v-545h-112v545h112z" />
    <glyph glyph-name="IJ" unicode="&#x132;" horiz-adv-x="988" 
d="M898 289q0 -174 -51 -237t-184 -63q-47 0 -85 6.5t-54 16.5v115q21 -12 60 -19.5t75 -7.5q48 0 74 20t35 66q5 22 7 53.5t2 101.5v313h-232v109h353v-474zM424 109v-109h-354v109h117v545h-117v109h354v-109h-117v-545h117z" />
    <glyph glyph-name="ij" unicode="&#x133;" horiz-adv-x="584" 
d="M518 751q0 -33 -22.5 -55.5t-55.5 -22.5t-55.5 22.5t-22.5 55.5t22.5 55.5t55.5 22.5t55.5 -22.5t22.5 -55.5zM224 751q0 -33 -22.5 -55.5t-55.5 -22.5t-55.5 22.5t-22.5 55.5t22.5 55.5t55.5 22.5t55.5 -22.5t22.5 -55.5zM222 -134q45 0 74.5 8t48.5 26q21 19 29 49.5
t8 99.5v496h112v-496q0 -87 -18.5 -144t-58.5 -89q-33 -27 -81.5 -39.5t-113.5 -11.5v101zM202 545v-545h-112v545h112z" />
    <glyph glyph-name="Jcircumflex" unicode="&#x134;" horiz-adv-x="524" 
d="M255 933l-133 -116l-53 65l144 149h85l144 -149l-53 -65zM434 289q0 -174 -51 -237t-184 -63q-47 0 -85 6.5t-54 16.5v115q21 -12 60 -19.5t75 -7.5q48 0 74 20t35 66q5 22 7 53.5t2 101.5v313h-232v109h353v-474z" />
    <glyph glyph-name="jcircumflex" unicode="&#x135;" horiz-adv-x="292" 
d="M138 756l-101 -119l-62 51l121 175h85l121 -175l-62 -51zM-70 -134q45 0 74.5 8t48.5 26q21 19 29 49.5t8 99.5v496h112v-496q0 -87 -18.5 -144t-58.5 -89q-33 -27 -81.5 -39.5t-113.5 -11.5v101z" />
    <glyph glyph-name="Kcommaaccent" unicode="&#x136;" horiz-adv-x="640" 
d="M210 340v-340h-120v763h120v-318q34 0 53 16t53 65q13 18 31.5 45.5t48.5 72.5q14 21 41.5 62t37.5 57h145l-231 -316q-7 -10 -14 -18t-14 -14q-11 -10 -19.5 -15.5t-15.5 -5.5v-3q7 0 16 -5t20 -16q7 -7 14 -15t14 -18l240 -337h-146l-42 63t-41 62q-32 47 -51 75
t-33 47q-39 56 -58 74.5t-49 18.5zM405 -134l-154 -117l-58 60l115 138z" />
    <glyph glyph-name="kcommaaccent" unicode="&#x137;" horiz-adv-x="553" 
d="M203 232v-232h-113v791h113v-464q41 0 56.5 8t33.5 31q11 13 25 33.5t35 55.5q8 13 19 30.5t36 59.5h125l-141 -213q-16 -24 -31 -38.5t-24 -14.5v-3q9 0 23.5 -14.5t34.5 -42.5l153 -219h-133l-40 60t-21 32q-22 33 -36.5 54t-25.5 35q-23 30 -38.5 40.5t-50.5 10.5z
M401 -134l-154 -117l-58 60l115 138z" />
    <glyph glyph-name="kgreenlandic" unicode="&#x138;" horiz-adv-x="533" 
d="M200 230v-230h-110v546h110v-218q30 0 47.5 17.5t58.5 76.5q10 14 23.5 34.5t60.5 89.5h131l-167 -216q-12 -16 -23.5 -27.5t-24.5 -18.5q-1 -1 -2 -1.5l-1 -0.5v-2l0.5 -0.5t2.5 -1.5q13 -8 25 -20t24 -29l173 -229h-131q-36 52 -58.5 84t-30.5 44q-47 65 -65 83.5
t-43 18.5z" />
    <glyph glyph-name="Lacute" unicode="&#x139;" horiz-adv-x="543" 
d="M366 948l-237 -125l-43 71l204 155zM503 109v-109h-413v763h121v-654h292z" />
    <glyph glyph-name="lacute" unicode="&#x13a;" horiz-adv-x="292" 
d="M334 1057l-203 -176l-58 60l164 197zM202 791v-791h-112v791h112z" />
    <glyph glyph-name="Lcommaaccent" unicode="&#x13b;" horiz-adv-x="543" 
d="M503 109v-109h-413v763h121v-654h292zM402 -134l-154 -117l-58 60l115 138z" />
    <glyph glyph-name="lcommaaccent" unicode="&#x13c;" horiz-adv-x="292" 
d="M202 791v-791h-112v791h112zM238 -134l-154 -117l-58 60l115 138z" />
    <glyph glyph-name="Lcaron" unicode="&#x13d;" horiz-adv-x="543" 
d="M500 880l-94 -252l-80 25l51 252zM503 109v-109h-413v763h121v-654h292z" />
    <glyph glyph-name="lcaron" unicode="&#x13e;" horiz-adv-x="342" 
d="M431 880l-94 -252l-80 25l51 252zM202 791v-791h-112v791h112z" />
    <glyph glyph-name="Ldot" unicode="&#x13f;" horiz-adv-x="543" 
d="M503 109v-109h-413v763h121v-654h292zM472 478q0 -33 -22.5 -55.5t-55.5 -22.5t-55.5 22.5t-22.5 55.5t22.5 55.5t55.5 22.5t55.5 -22.5t22.5 -55.5z" />
    <glyph glyph-name="ldot" unicode="&#x140;" horiz-adv-x="342" 
d="M202 791v-791h-112v791h112zM398 516q0 -33 -22.5 -55.5t-55.5 -22.5t-55.5 22.5t-22.5 55.5t22.5 55.5t55.5 22.5t55.5 -22.5t22.5 -55.5z" />
    <glyph glyph-name="Lslash" unicode="&#x141;" horiz-adv-x="543" 
d="M503 109v-109h-413v224l-80 -56v130l80 56v409h121v-325l231 160v-130l-231 -160v-199h292z" />
    <glyph glyph-name="lslash" unicode="&#x142;" horiz-adv-x="292" 
d="M282 420l-80 -50v-370h-112v300l-80 -50v115l80 50v376h112v-306l80 50v-115z" />
    <glyph glyph-name="Nacute" unicode="&#x143;" horiz-adv-x="762" 
d="M602 948l-237 -125l-43 71l204 155zM211 453v-453h-121v763h121l283 -458q13 -20 27.5 -49t31.5 -67h4q-3 38 -4.5 68t-1.5 53v453h121v-763h-121l-283 458q-16 26 -30.5 55t-28.5 61h-4q3 -32 4.5 -62t1.5 -59z" />
    <glyph glyph-name="nacute" unicode="&#x144;" 
d="M522 822l-203 -176l-58 60l164 197zM202 402v-402h-112v545h112v-40l3 -3q38 27 79 40.5t85 13.5q79 0 120 -44t41 -130v-382h-112v345q0 61 -18 86t-61 25q-39 0 -79.5 -16t-57.5 -38z" />
    <glyph glyph-name="Ncommaaccent" unicode="&#x145;" horiz-adv-x="762" 
d="M211 453v-453h-121v763h121l283 -458q13 -20 27.5 -49t31.5 -67h4q-3 38 -4.5 68t-1.5 53v453h121v-763h-121l-283 458q-16 26 -30.5 55t-28.5 61h-4q3 -32 4.5 -62t1.5 -59zM487 -134l-154 -117l-58 60l115 138z" />
    <glyph glyph-name="ncommaaccent" unicode="&#x146;" 
d="M202 402v-402h-112v545h112v-40l3 -3q38 27 79 40.5t85 13.5q79 0 120 -44t41 -130v-382h-112v345q0 61 -18 86t-61 25q-39 0 -79.5 -16t-57.5 -38zM416 -134l-154 -117l-58 60l115 138z" />
    <glyph glyph-name="Ncaron" unicode="&#x147;" horiz-adv-x="762" 
d="M372 916l133 116l53 -65l-144 -149h-85l-144 149l53 65zM211 453v-453h-121v763h121l283 -458q13 -20 27.5 -49t31.5 -67h4q-3 38 -4.5 68t-1.5 53v453h121v-763h-121l-283 458q-16 26 -30.5 55t-28.5 61h-4q3 -32 4.5 -62t1.5 -59z" />
    <glyph glyph-name="ncaron" unicode="&#x148;" 
d="M318 748l101 119l62 -51l-121 -175h-85l-121 175l62 51zM202 402v-402h-112v545h112v-40l3 -3q38 27 79 40.5t85 13.5q79 0 120 -44t41 -130v-382h-112v345q0 61 -18 86t-61 25q-39 0 -79.5 -16t-57.5 -38z" />
    <glyph glyph-name="napostrophe" unicode="&#x149;" 
d="M131 747l-96 -273l-80 23l53 272zM202 402v-402h-112v545h112v-40l3 -3q38 27 79 40.5t85 13.5q79 0 120 -44t41 -130v-382h-112v345q0 61 -18 86t-61 25q-39 0 -79.5 -16t-57.5 -38z" />
    <glyph glyph-name="Eng" unicode="&#x14a;" horiz-adv-x="762" 
d="M551 763h121v-698q0 -174 -51 -237t-184 -63q-35 0 -80 7t-59 16v115q22 -13 58.5 -20t79.5 -7q47 0 72 20.5t35 66.5q2 9 3 19t2 22l-280 454q-16 26 -30.5 55t-28.5 61h-4q3 -32 4.5 -62t1.5 -59v-453h-121v763h121l283 -458q13 -20 27.5 -49t31.5 -67h4q-3 38 -4.5 68
t-1.5 53v453z" />
    <glyph glyph-name="eng" unicode="&#x14b;" 
d="M202 402v-402h-112v545h112v-40l3 -3q38 27 79 40.5t85 13.5q79 0 120 -44t41 -130v-333q0 -91 -18.5 -147t-58.5 -86q-36 -27 -84.5 -39.5t-110.5 -11.5v101q46 0 75.5 8t47.5 26q21 20 29 50.5t8 98.5v296q0 61 -18 86t-61 25q-39 0 -79.5 -16t-57.5 -38z" />
    <glyph glyph-name="Omacron" unicode="&#x14c;" horiz-adv-x="785" 
d="M573 975v-92h-362v92h362zM735 381q0 -174 -94 -283t-249 -109t-248.5 109t-93.5 283q0 175 93.5 284t248.5 109t249 -109.5t94 -283.5zM614 381q0 126 -60.5 205t-161.5 79t-161 -78.5t-60 -205.5q0 -126 60 -204.5t161 -78.5t161.5 78.5t60.5 204.5z" />
    <glyph glyph-name="omacron" unicode="&#x14d;" horiz-adv-x="593" 
d="M457 791v-92h-322v92h322zM543 272q0 -127 -67 -205t-180 -78q-112 0 -179 78t-67 205t67 205.5t179 78.5t179.5 -78.5t67.5 -205.5zM430 272q0 84 -36 134t-98 50q-63 0 -98 -49.5t-35 -134.5t35 -134t98 -49q62 0 98 49.5t36 133.5z" />
    <glyph glyph-name="Obreve" unicode="&#x14e;" horiz-adv-x="785" 
d="M572 1004q0 -81 -48 -131t-132 -50t-132 50t-48 131h83q2 -42 27.5 -66.5t69.5 -24.5t69.5 24.5t27.5 66.5h83zM735 381q0 -174 -94 -283t-249 -109t-248.5 109t-93.5 283q0 175 93.5 284t248.5 109t249 -109.5t94 -283.5zM614 381q0 126 -60.5 205t-161.5 79t-161 -78.5
t-60 -205.5q0 -126 60 -204.5t161 -78.5t161.5 78.5t60.5 204.5z" />
    <glyph glyph-name="obreve" unicode="&#x14f;" horiz-adv-x="593" 
d="M456 832q0 -81 -43 -131t-117 -50t-117 50t-43 131h83q2 -43 22 -67t55 -24t55 24t22 67h83zM543 272q0 -127 -67 -205t-180 -78q-112 0 -179 78t-67 205t67 205.5t179 78.5t179.5 -78.5t67.5 -205.5zM430 272q0 84 -36 134t-98 50q-63 0 -98 -49.5t-35 -134.5t35 -134
t98 -49q62 0 98 49.5t36 133.5z" />
    <glyph glyph-name="Ohungarumlaut" unicode="&#x150;" horiz-adv-x="785" 
d="M473 969l-216 -159l-53 64l179 184zM721 927l-242 -117l-40 73l209 148zM735 381q0 -174 -94 -283t-249 -109t-248.5 109t-93.5 283q0 175 93.5 284t248.5 109t249 -109.5t94 -283.5zM614 381q0 126 -60.5 205t-161.5 79t-161 -78.5t-60 -205.5q0 -126 60 -204.5
t161 -78.5t161.5 78.5t60.5 204.5z" />
    <glyph glyph-name="ohungarumlaut" unicode="&#x151;" horiz-adv-x="593" 
d="M360 847l-165 -212l-69 48l123 225zM575 812l-196 -184l-60 57l156 204zM543 272q0 -127 -67 -205t-180 -78q-112 0 -179 78t-67 205t67 205.5t179 78.5t179.5 -78.5t67.5 -205.5zM430 272q0 84 -36 134t-98 50q-63 0 -98 -49.5t-35 -134.5t35 -134t98 -49q62 0 98 49.5
t36 133.5z" />
    <glyph glyph-name="OE" unicode="&#x152;" horiz-adv-x="1097" 
d="M614 0v70q-43 -39 -99.5 -60t-122.5 -21q-155 0 -248.5 109t-93.5 283q0 175 93.5 284t248.5 109q66 0 122.5 -21t99.5 -60v70h401v-109h-280v-207h265v-109h-265v-229h292v-109h-413zM614 381q0 126 -60.5 205t-161.5 79t-161 -78.5t-60 -205.5q0 -126 60 -204.5
t161 -78.5t161.5 78.5t60.5 204.5z" />
    <glyph glyph-name="oe" unicode="&#x153;" horiz-adv-x="939" 
d="M866 20q-42 -16 -82 -23.5t-80 -7.5q-72 0 -127 23.5t-90 67.5q-32 -43 -81 -67t-110 -24q-112 0 -179 78t-67 205t67 205.5t179 78.5q61 0 109.5 -24t80.5 -68q33 44 83 68t113 24q99 0 153 -59.5t54 -165.5q0 -24 -3 -50t-9 -52h-336q0 -2 -0.5 -3.5t-0.5 -3.5
q11 -67 52 -100.5t113 -33.5q37 0 77.5 8.5t83.5 25.5v-102zM673 467q-57 0 -92 -37t-41 -105v-4t1 -4h243q1 8 2 17.5t1 17.5q1 52 -29.5 83.5t-84.5 31.5zM430 272q0 84 -36 134t-98 50q-63 0 -98 -49.5t-35 -134.5t35 -134t98 -49q62 0 98 49.5t36 133.5z" />
    <glyph glyph-name="Racute" unicode="&#x154;" horiz-adv-x="656" 
d="M488 948l-237 -125l-43 71l204 155zM211 292v-292h-121v763h194q140 0 212.5 -57t72.5 -169q0 -76 -33 -130t-96 -83l186 -324h-141l-158 297q-16 -3 -32.5 -4t-34.5 -1h-49zM284 654h-73v-255h62q87 0 131 32t44 96q0 62 -42.5 94.5t-121.5 32.5z" />
    <glyph glyph-name="racute" unicode="&#x155;" horiz-adv-x="425" 
d="M406 822l-203 -176l-58 60l164 197zM202 360v-360h-112v545h112v-65l4 -3q28 38 67.5 58.5t87.5 20.5q9 0 17.5 -0.5t16.5 -1.5v-122q-5 1 -10 1h-12q-62 0 -106.5 -19.5t-64.5 -53.5z" />
    <glyph glyph-name="Rcommaaccent" unicode="&#x156;" horiz-adv-x="656" 
d="M211 292v-292h-121v763h194q140 0 212.5 -57t72.5 -169q0 -76 -33 -130t-96 -83l186 -324h-141l-158 297q-16 -3 -32.5 -4t-34.5 -1h-49zM284 654h-73v-255h62q87 0 131 32t44 96q0 62 -42.5 94.5t-121.5 32.5zM432 -134l-154 -117l-58 60l115 138z" />
    <glyph glyph-name="rcommaaccent" unicode="&#x157;" horiz-adv-x="425" 
d="M202 360v-360h-112v545h112v-65l4 -3q28 38 67.5 58.5t87.5 20.5q9 0 17.5 -0.5t16.5 -1.5v-122q-5 1 -10 1h-12q-62 0 -106.5 -19.5t-64.5 -53.5zM243 -134l-154 -117l-58 60l115 138z" />
    <glyph glyph-name="Rcaron" unicode="&#x158;" horiz-adv-x="656" 
d="M299 916l133 116l53 -65l-144 -149h-85l-144 149l53 65zM211 292v-292h-121v763h194q140 0 212.5 -57t72.5 -169q0 -76 -33 -130t-96 -83l186 -324h-141l-158 297q-16 -3 -32.5 -4t-34.5 -1h-49zM284 654h-73v-255h62q87 0 131 32t44 96q0 62 -42.5 94.5t-121.5 32.5z
" />
    <glyph glyph-name="rcaron" unicode="&#x159;" horiz-adv-x="425" 
d="M243 748l101 119l62 -51l-121 -175h-85l-121 175l62 51zM202 360v-360h-112v545h112v-65l4 -3q28 38 67.5 58.5t87.5 20.5q9 0 17.5 -0.5t16.5 -1.5v-122q-5 1 -10 1h-12q-62 0 -106.5 -19.5t-64.5 -53.5z" />
    <glyph glyph-name="Sacute" unicode="&#x15a;" horiz-adv-x="570" 
d="M498 948l-237 -125l-43 71l204 155zM510 208q0 -102 -70.5 -160.5t-195.5 -58.5q-49 0 -94.5 10t-89.5 30v120q41 -27 89 -41.5t97 -14.5q67 0 104.5 27t37.5 75q0 37 -25.5 67.5t-112.5 77.5q-57 31 -83.5 49.5t-45.5 38.5q-29 29 -43 64.5t-14 77.5q0 94 66 149t178 55
q46 0 88 -9.5t77 -27.5v-126q-29 26 -75.5 41t-95.5 15q-56 0 -86 -22.5t-30 -63.5q0 -35 24.5 -63.5t108.5 -72.5q59 -31 86.5 -50t46.5 -39q30 -31 44 -67.5t14 -80.5z" />
    <glyph glyph-name="sacute" unicode="&#x15b;" horiz-adv-x="497" 
d="M444 822l-203 -176l-58 60l164 197zM437 151q0 -73 -55 -117.5t-147 -44.5q-46 0 -91.5 11t-73.5 29v107q13 -12 31.5 -21.5t42.5 -17.5q20 -6 41 -9.5t43 -3.5q47 0 73 14.5t26 41.5q0 22 -19 40t-83 45q-48 21 -70.5 34t-38.5 27q-26 22 -38.5 49.5t-12.5 61.5
q0 73 53.5 116t146.5 43q44 0 85 -10.5t67 -26.5v-100q-36 20 -76.5 31t-78.5 11q-42 0 -64.5 -15t-22.5 -41q0 -22 19 -39.5t83 -44.5q48 -20 70.5 -33t38.5 -27q26 -22 38.5 -49t12.5 -61z" />
    <glyph glyph-name="Scircumflex" unicode="&#x15c;" horiz-adv-x="570" 
d="M285 933l-133 -116l-53 65l144 149h85l144 -149l-53 -65zM510 208q0 -102 -70.5 -160.5t-195.5 -58.5q-49 0 -94.5 10t-89.5 30v120q41 -27 89 -41.5t97 -14.5q67 0 104.5 27t37.5 75q0 37 -25.5 67.5t-112.5 77.5q-57 31 -83.5 49.5t-45.5 38.5q-29 29 -43 64.5
t-14 77.5q0 94 66 149t178 55q46 0 88 -9.5t77 -27.5v-126q-29 26 -75.5 41t-95.5 15q-56 0 -86 -22.5t-30 -63.5q0 -35 24.5 -63.5t108.5 -72.5q59 -31 86.5 -50t46.5 -39q30 -31 44 -67.5t14 -80.5z" />
    <glyph glyph-name="scircumflex" unicode="&#x15d;" horiz-adv-x="497" 
d="M251 756l-101 -119l-62 51l121 175h85l121 -175l-62 -51zM437 151q0 -73 -55 -117.5t-147 -44.5q-46 0 -91.5 11t-73.5 29v107q13 -12 31.5 -21.5t42.5 -17.5q20 -6 41 -9.5t43 -3.5q47 0 73 14.5t26 41.5q0 22 -19 40t-83 45q-48 21 -70.5 34t-38.5 27
q-26 22 -38.5 49.5t-12.5 61.5q0 73 53.5 116t146.5 43q44 0 85 -10.5t67 -26.5v-100q-36 20 -76.5 31t-78.5 11q-42 0 -64.5 -15t-22.5 -41q0 -22 19 -39.5t83 -44.5q48 -20 70.5 -33t38.5 -27q26 -22 38.5 -49t12.5 -61z" />
    <glyph glyph-name="Scedilla" unicode="&#x15e;" horiz-adv-x="570" 
d="M376 -56q0 -59 -37 -91t-98 -32q-18 0 -34 2t-30 6v92q13 -4 25 -6t24 -2q22 0 35.5 11t13.5 30q0 9 -3 18.5t-7 16.5h-10.5h-10.5q-49 0 -94.5 10t-89.5 30v120q41 -27 89 -41.5t97 -14.5q67 0 104.5 27t37.5 75q0 37 -25.5 67.5t-112.5 77.5q-57 31 -83.5 49.5
t-45.5 38.5q-29 29 -43 64.5t-14 77.5q0 94 66 149t178 55q46 0 88 -9.5t77 -27.5v-126q-29 26 -75.5 41t-95.5 15q-56 0 -86 -22.5t-30 -63.5q0 -35 24.5 -63.5t108.5 -72.5q59 -31 86.5 -50t46.5 -39q30 -31 44 -67.5t14 -80.5q0 -77 -40 -129.5t-114 -74.5
q10 -14 15 -29.5t5 -30.5z" />
    <glyph glyph-name="scedilla" unicode="&#x15f;" horiz-adv-x="497" 
d="M337 -56q0 -59 -37 -91t-98 -32q-18 0 -34 2t-30 6v92q13 -4 25 -6t24 -2q22 0 35.5 11t13.5 30q0 9 -3 18t-7 17q-44 1 -86.5 12t-69.5 28v107q13 -12 31.5 -21.5t42.5 -17.5q20 -6 41 -9.5t43 -3.5q47 0 73 14.5t26 41.5q0 22 -19 40t-83 45q-48 21 -70.5 34t-38.5 27
q-26 22 -38.5 49.5t-12.5 61.5q0 73 53.5 116t146.5 43q44 0 85 -10.5t67 -26.5v-100q-36 20 -76.5 31t-78.5 11q-42 0 -64.5 -15t-22.5 -41q0 -22 19 -39.5t83 -44.5q48 -20 70.5 -33t38.5 -27q26 -22 38.5 -49t12.5 -61q0 -55 -31.5 -94t-86.5 -56q9 -13 13.5 -28t4.5 -29
z" />
    <glyph glyph-name="Scaron" unicode="&#x160;" horiz-adv-x="570" 
d="M286 916l133 116l53 -65l-144 -149h-85l-144 149l53 65zM510 208q0 -102 -70.5 -160.5t-195.5 -58.5q-49 0 -94.5 10t-89.5 30v120q41 -27 89 -41.5t97 -14.5q67 0 104.5 27t37.5 75q0 37 -25.5 67.5t-112.5 77.5q-57 31 -83.5 49.5t-45.5 38.5q-29 29 -43 64.5t-14 77.5
q0 94 66 149t178 55q46 0 88 -9.5t77 -27.5v-126q-29 26 -75.5 41t-95.5 15q-56 0 -86 -22.5t-30 -63.5q0 -35 24.5 -63.5t108.5 -72.5q59 -31 86.5 -50t46.5 -39q30 -31 44 -67.5t14 -80.5z" />
    <glyph glyph-name="scaron" unicode="&#x161;" horiz-adv-x="497" 
d="M252 748l101 119l62 -51l-121 -175h-85l-121 175l62 51zM437 151q0 -73 -55 -117.5t-147 -44.5q-46 0 -91.5 11t-73.5 29v107q13 -12 31.5 -21.5t42.5 -17.5q20 -6 41 -9.5t43 -3.5q47 0 73 14.5t26 41.5q0 22 -19 40t-83 45q-48 21 -70.5 34t-38.5 27q-26 22 -38.5 49.5
t-12.5 61.5q0 73 53.5 116t146.5 43q44 0 85 -10.5t67 -26.5v-100q-36 20 -76.5 31t-78.5 11q-42 0 -64.5 -15t-22.5 -41q0 -22 19 -39.5t83 -44.5q48 -20 70.5 -33t38.5 -27q26 -22 38.5 -49t12.5 -61z" />
    <glyph glyph-name="Tcommaaccent" unicode="&#x162;" horiz-adv-x="550" 
d="M335 654v-654h-120v654h-205v109h530v-109h-205zM362 -134l-154 -117l-58 60l115 138z" />
    <glyph glyph-name="tcommaaccent" unicode="&#x163;" horiz-adv-x="434" 
d="M393 8q-22 -9 -49 -14t-55 -5q-86 0 -128.5 48t-42.5 144v268h-88v96h88v144h112v-144h152v-96h-152v-206q0 -89 17.5 -121t65.5 -32q19 0 40.5 4t39.5 10v-96zM355 -134l-154 -117l-58 60l115 138z" />
    <glyph glyph-name="Tcaron" unicode="&#x164;" horiz-adv-x="550" 
d="M276 916l133 116l53 -65l-144 -149h-85l-144 149l53 65zM335 654v-654h-120v654h-205v109h530v-109h-205z" />
    <glyph glyph-name="tcaron" unicode="&#x165;" horiz-adv-x="434" 
d="M459 880l-94 -252l-80 25l51 252zM393 8q-22 -9 -49 -14t-55 -5q-86 0 -128.5 48t-42.5 144v268h-88v96h88v144h112v-144h152v-96h-152v-206q0 -89 17.5 -121t65.5 -32q19 0 40.5 4t39.5 10v-96z" />
    <glyph glyph-name="Tbar" unicode="&#x166;" horiz-adv-x="550" 
d="M540 339h-205v-339h-120v339h-205v109h205v206h-205v109h530v-109h-205v-206h205v-109z" />
    <glyph glyph-name="tbar" unicode="&#x167;" horiz-adv-x="434" 
d="M393 8q-22 -9 -49 -14t-55 -5q-86 0 -128.5 48t-42.5 144v44h-88v96h88v128h-88v96h88v144h112v-144h152v-96h-152v-128h153v-96h-153q2 -78 20 -106.5t63 -28.5q19 0 40.5 4t39.5 10v-96z" />
    <glyph glyph-name="Utilde" unicode="&#x168;" horiz-adv-x="762" 
d="M546 998q7 -72 -16 -110.5t-72 -38.5q-16 0 -34.5 6.5t-53.5 25.5q-25 14 -35.5 18t-17.5 4q-14 0 -19.5 -14t-2.5 -42h-79q-7 72 16.5 110.5t71.5 38.5q17 0 36.5 -6.5t54.5 -25.5q24 -13 33.5 -16.5t16.5 -3.5q14 0 19.5 13.5t2.5 40.5h79zM381 -11q-94 0 -154.5 28.5
t-92.5 88.5q-23 43 -33.5 107.5t-10.5 176.5v373h121v-383q0 -83 4.5 -122.5t14.5 -66.5q17 -47 54 -69t98 -22t97.5 22t53.5 69q10 27 14 65.5t4 123.5v383h121v-373q0 -106 -11 -171.5t-35 -110.5q-32 -61 -92.5 -90t-152.5 -29z" />
    <glyph glyph-name="utilde" unicode="&#x169;" 
d="M474 839q1 -87 -26 -133t-75 -43q-20 2 -38.5 12t-43.5 37q-15 16 -21.5 21t-12.5 5q-14 1 -21.5 -17.5t-7.5 -55.5h-82q-1 85 26 131t75 43q22 -2 40.5 -12t43.5 -38q14 -15 20 -19.5t12 -4.5q14 -1 21.5 18t7.5 56h82zM415 43q-38 -27 -79 -40.5t-85 -13.5
q-79 0 -120 44t-41 130v382h112v-345q0 -61 18 -86t61 -25q38 0 79.5 16t57.5 38v402h112v-545h-112v40z" />
    <glyph glyph-name="Umacron" unicode="&#x16a;" horiz-adv-x="762" 
d="M562 975v-92h-362v92h362zM381 -11q-94 0 -154.5 28.5t-92.5 88.5q-23 43 -33.5 107.5t-10.5 176.5v373h121v-383q0 -83 4.5 -122.5t14.5 -66.5q17 -47 54 -69t98 -22t97.5 22t53.5 69q10 27 14 65.5t4 123.5v383h121v-373q0 -106 -11 -171.5t-35 -110.5
q-32 -61 -92.5 -90t-152.5 -29z" />
    <glyph glyph-name="umacron" unicode="&#x16b;" 
d="M471 791v-92h-322v92h322zM415 43q-38 -27 -79 -40.5t-85 -13.5q-79 0 -120 44t-41 130v382h112v-345q0 -61 18 -86t61 -25q38 0 79.5 16t57.5 38v402h112v-545h-112v40z" />
    <glyph glyph-name="Ubreve" unicode="&#x16c;" horiz-adv-x="762" 
d="M561 1004q0 -81 -48 -131t-132 -50t-132 50t-48 131h83q2 -42 27.5 -66.5t69.5 -24.5t69.5 24.5t27.5 66.5h83zM381 -11q-94 0 -154.5 28.5t-92.5 88.5q-23 43 -33.5 107.5t-10.5 176.5v373h121v-383q0 -83 4.5 -122.5t14.5 -66.5q17 -47 54 -69t98 -22t97.5 22t53.5 69
q10 27 14 65.5t4 123.5v383h121v-373q0 -106 -11 -171.5t-35 -110.5q-32 -61 -92.5 -90t-152.5 -29z" />
    <glyph glyph-name="ubreve" unicode="&#x16d;" 
d="M470 832q0 -81 -43 -131t-117 -50t-117 50t-43 131h83q2 -43 22 -67t55 -24t55 24t22 67h83zM415 43q-38 -27 -79 -40.5t-85 -13.5q-79 0 -120 44t-41 130v382h112v-345q0 -61 18 -86t61 -25q38 0 79.5 16t57.5 38v402h112v-545h-112v40z" />
    <glyph glyph-name="Uring" unicode="&#x16e;" horiz-adv-x="762" 
d="M381 1044q73 0 118.5 -34.5t45.5 -86.5t-45.5 -86.5t-118.5 -34.5t-118.5 34.5t-45.5 86.5t45.5 86.5t118.5 34.5zM381 969q-34 0 -54 -12.5t-20 -33.5t20 -33.5t54 -12.5q33 0 53.5 12.5t20.5 33.5t-20.5 33.5t-53.5 12.5zM381 -11q-94 0 -154.5 28.5t-92.5 88.5
q-23 43 -33.5 107.5t-10.5 176.5v373h121v-383q0 -83 4.5 -122.5t14.5 -66.5q17 -47 54 -69t98 -22t97.5 22t53.5 69q10 27 14 65.5t4 123.5v383h121v-373q0 -106 -11 -171.5t-35 -110.5q-32 -61 -92.5 -90t-152.5 -29z" />
    <glyph glyph-name="uring" unicode="&#x16f;" 
d="M310 903q53 0 91 -38t38 -91t-38 -91t-91 -38t-91 38t-38 91t38 91t91 38zM310 829q-25 0 -40 -14.5t-15 -40.5q0 -25 15 -40t40 -15t40 15t15 40t-15 40t-40 15zM415 43q-38 -27 -79 -40.5t-85 -13.5q-79 0 -120 44t-41 130v382h112v-345q0 -61 18 -86t61 -25
q38 0 79.5 16t57.5 38v402h112v-545h-112v40z" />
    <glyph glyph-name="Uhungarumlaut" unicode="&#x170;" horiz-adv-x="762" 
d="M456 969l-216 -159l-53 64l179 184zM704 927l-242 -117l-40 73l209 148zM381 -11q-94 0 -154.5 28.5t-92.5 88.5q-23 43 -33.5 107.5t-10.5 176.5v373h121v-383q0 -83 4.5 -122.5t14.5 -66.5q17 -47 54 -69t98 -22t97.5 22t53.5 69q10 27 14 65.5t4 123.5v383h121v-373
q0 -106 -11 -171.5t-35 -110.5q-32 -61 -92.5 -90t-152.5 -29z" />
    <glyph glyph-name="uhungarumlaut" unicode="&#x171;" 
d="M385 847l-165 -212l-69 48l123 225zM600 812l-196 -184l-60 57l156 204zM415 43q-38 -27 -79 -40.5t-85 -13.5q-79 0 -120 44t-41 130v382h112v-345q0 -61 18 -86t61 -25q38 0 79.5 16t57.5 38v402h112v-545h-112v40z" />
    <glyph glyph-name="Uogonek" unicode="&#x172;" horiz-adv-x="762" 
d="M460 -214q-16 -10 -39.5 -15.5t-46.5 -5.5q-46 0 -74 27.5t-28 72.5q0 34 16 65t50 61q-76 5 -126 33.5t-78 81.5q-23 43 -33.5 107.5t-10.5 176.5v373h121v-383q0 -83 4.5 -122.5t14.5 -66.5q17 -47 54 -69t98 -22t97.5 22t53.5 69q10 27 14 65.5t4 123.5v383h121v-373
q0 -106 -11 -171.5t-35 -110.5q-25 -49 -68.5 -77t-106.5 -37q-34 -22 -54 -51t-20 -56q0 -16 10.5 -25t28.5 -9q11 0 23 3.5t21 9.5v-80z" />
    <glyph glyph-name="uogonek" unicode="&#x173;" 
d="M529 -214q-16 -10 -39.5 -15.5t-46.5 -5.5q-46 0 -74 27.5t-28 72.5q0 37 18.5 70t58.5 65v40l-3 3q-38 -27 -79 -40.5t-85 -13.5q-79 0 -120 44t-41 130v382h112v-345q0 -61 18 -86t61 -25q38 0 79.5 16t57.5 38v402h112v-545q-38 -22 -61 -53t-23 -60q0 -16 10.5 -25
t28.5 -9q11 0 23 3.5t21 9.5v-80z" />
    <glyph glyph-name="Wcircumflex" unicode="&#x174;" horiz-adv-x="1015" 
d="M507 933l-133 -116l-53 65l144 149h85l144 -149l-53 -65zM506 596l-142 -596h-149l-165 763h126l73 -373q8 -41 15 -80.5t18 -100.5q5 -26 7 -39t4 -23h3q4 15 8 33t13 59q11 53 18.5 85.5t15.5 65.5l89 373h136l91 -372q7 -28 14 -58.5t19 -86.5q9 -44 13.5 -64t8.5 -35
h3q20 111 28.5 156.5t16.5 88.5l69 371h126l-165 -763h-149l-142 596h-3z" />
    <glyph glyph-name="wcircumflex" unicode="&#x175;" horiz-adv-x="804" 
d="M402 756l-101 -119l-62 51l121 175h85l121 -175l-62 -51zM378 297l-92 -297h-113l-163 545h121l79 -314q11 -41 16 -65.5t4 -31.5h3q0 7 6 31.5t18 65.5l92 314h112l90 -314q12 -42 18 -66t5 -31h3q0 7 5.5 31t15.5 66l80 314h116l-165 -545h-113l-89 297q-11 39 -17 63
t-6 34h-3q1 -10 -5 -34t-18 -63z" />
    <glyph glyph-name="Ycircumflex" unicode="&#x176;" horiz-adv-x="625" 
d="M312 933l-133 -116l-53 65l144 149h85l144 -149l-53 -65zM373 348v-348h-120v348l-253 415h136l154 -261q6 -10 11.5 -22.5t10.5 -28.5h3q6 15 11.5 28t11.5 23l151 261h136z" />
    <glyph glyph-name="ycircumflex" unicode="&#x177;" horiz-adv-x="522" 
d="M261 756l-101 -119l-62 51l121 175h85l121 -175l-62 -51zM317 0q-46 -130 -98.5 -177.5t-143.5 -55.5q-7 -1 -16 -1h-28v100q8 0 17 0.5t21 1.5q58 8 91.5 40.5t44.5 91.5l-195 545h123l107 -337q12 -36 17 -56t3 -25h3q-1 5 4 25t16 56l106 337h123z" />
    <glyph glyph-name="Ydieresis" unicode="&#x178;" horiz-adv-x="625" 
d="M515 941q0 -33 -22.5 -55.5t-55.5 -22.5t-55.5 22.5t-22.5 55.5t22.5 55.5t55.5 22.5t55.5 -22.5t22.5 -55.5zM265 941q0 -33 -22.5 -55.5t-55.5 -22.5t-55.5 22.5t-22.5 55.5t22.5 55.5t55.5 22.5t55.5 -22.5t22.5 -55.5zM373 348v-348h-120v348l-253 415h136l154 -261
q6 -10 11.5 -22.5t10.5 -28.5h3q6 15 11.5 28t11.5 23l151 261h136z" />
    <glyph glyph-name="Zacute" unicode="&#x179;" horiz-adv-x="618" 
d="M511 948l-237 -125l-43 71l204 155zM558 109v-109h-498v109l349 542l-3 3h-336v109h478v-109l-349 -542l3 -3h356z" />
    <glyph glyph-name="zacute" unicode="&#x17a;" horiz-adv-x="508" 
d="M441 822l-203 -176l-58 60l164 197zM458 99v-99h-398v101l259 342l-3 3h-245v99h376v-101l-258 -342l3 -3h266z" />
    <glyph glyph-name="Zdotaccent" unicode="&#x17b;" horiz-adv-x="618" 
d="M387 941q0 -33 -22.5 -55.5t-55.5 -22.5t-55.5 22.5t-22.5 55.5t22.5 55.5t55.5 22.5t55.5 -22.5t22.5 -55.5zM558 109v-109h-498v109l349 542l-3 3h-336v109h478v-109l-349 -542l3 -3h356z" />
    <glyph glyph-name="zdotaccent" unicode="&#x17c;" horiz-adv-x="508" 
d="M337 751q0 -33 -22.5 -55.5t-55.5 -22.5t-55.5 22.5t-22.5 55.5t22.5 55.5t55.5 22.5t55.5 -22.5t22.5 -55.5zM458 99v-99h-398v101l259 342l-3 3h-245v99h376v-101l-258 -342l3 -3h266z" />
    <glyph glyph-name="Zcaron" unicode="&#x17d;" horiz-adv-x="618" 
d="M310 916l133 116l53 -65l-144 -149h-85l-144 149l53 65zM558 109v-109h-498v109l349 542l-3 3h-336v109h478v-109l-349 -542l3 -3h356z" />
    <glyph glyph-name="zcaron" unicode="&#x17e;" horiz-adv-x="508" 
d="M260 748l101 119l62 -51l-121 -175h-85l-121 175l62 51zM458 99v-99h-398v101l259 342l-3 3h-245v99h376v-101l-258 -342l3 -3h266z" />
    <glyph glyph-name="longs" unicode="&#x17f;" horiz-adv-x="412" 
d="M40 450v95h82q4 135 54 195.5t152 60.5q26 0 51.5 -4t52.5 -13v-104q-16 11 -39.5 17t-51.5 6q-61 0 -84 -30.5t-23 -127.5v-545h-112v450h-82z" />
    <glyph glyph-name="Schwa" unicode="&#x18f;" horiz-adv-x="713" 
d="M82 730q55 22 108.5 32.5t109.5 10.5q173 0 268 -102.5t95 -292.5q0 -170 -93 -279.5t-243 -109.5q-134 0 -205.5 81t-71.5 227q0 35 3.5 70.5t11.5 73.5h479q-13 111 -75 167t-172 56q-49 0 -105 -12.5t-110 -34.5v113zM159 274q-2 -77 45.5 -126.5t125.5 -49.5
q94 0 149.5 61t62.5 175h-379q-2 -9 -3 -24.5t-1 -35.5z" />
    <glyph glyph-name="florin" unicode="&#x192;" horiz-adv-x="378" 
d="M204 8q-10 -129 -72.5 -186t-187.5 -57h-14v101q85 0 119.5 31t39.5 101l24 349h-94v95h100l6 86q8 117 60.5 179.5t144.5 62.5q17 0 36 -3t32 -8v-110q-11 7 -29 12t-35 5q-45 0 -67 -32t-27 -104l-6 -88h124v-95h-131z" />
    <glyph glyph-name="Aringacute" unicode="&#x1fa;" horiz-adv-x="685" 
d="M484 1179l-237 -125l-43 71l204 155zM344 1044q73 0 118.5 -34.5t45.5 -86.5t-45.5 -86.5t-118.5 -34.5t-118.5 34.5t-45.5 86.5t45.5 86.5t118.5 34.5zM344 969q-34 0 -54 -12.5t-20 -33.5t20 -33.5t54 -12.5q33 0 53.5 12.5t20.5 33.5t-20.5 33.5t-53.5 12.5zM208 175
l-52 -175h-126l243 763h141l241 -763h-126l-52 175h-269zM342 642q-11 -46 -24 -93t-26 -91l-51 -174h204l-50 175q-14 49 -27.5 98t-22.5 85h-3z" />
    <glyph glyph-name="aringacute" unicode="&#x1fb;" horiz-adv-x="566" 
d="M436 1022l-237 -125l-43 71l204 155zM296 869q53 0 91 -38t38 -91t-38 -91t-91 -38t-91 38t-38 91t38 91t91 38zM296 795q-25 0 -40 -14.5t-15 -40.5q0 -25 15 -40t40 -15t40 15t15 40t-15 40t-40 15zM385 51q-26 -28 -67.5 -45t-88.5 -17q-77 0 -123 46t-46 121
q0 84 61.5 129.5t176.5 45.5h76q1 3 1 7v14q0 58 -25.5 81t-88.5 23q-41 0 -79.5 -9t-80.5 -29v103q17 8 39.5 14.5t49.5 11.5q23 5 47 7t47 2q108 0 155 -52t47 -167v-337h-81l-17 50zM310 248q-70 0 -103.5 -20t-33.5 -64q0 -40 22 -61t64 -21q39 0 74.5 17t49.5 40v109
h-73z" />
    <glyph glyph-name="AEacute" unicode="&#x1fc;" horiz-adv-x="934" 
d="M768 948l-237 -125l-43 71l204 155zM30 0l358 763h464v-109h-280v-207h265v-109h-265v-229h292v-109h-413v175h-213l-77 -175h-131zM447 654l-162 -370h166v370h-4z" />
    <glyph glyph-name="aeacute" unicode="&#x1fd;" horiz-adv-x="880" 
d="M644 822l-203 -176l-58 60l164 197zM807 20q-43 -16 -83.5 -23.5t-82.5 -7.5q-69 0 -122 22.5t-88 64.5q-36 -41 -88.5 -64t-110.5 -23q-79 0 -125.5 46.5t-46.5 123.5q0 80 61.5 124t176.5 44h76q1 3 1 8v17q0 54 -24.5 78.5t-78.5 24.5q-47 0 -87.5 -9t-83.5 -29v104
q17 8 39 14.5t49 11.5q23 4 46.5 6.5t46.5 2.5q61 0 102 -17t64 -53q32 33 76 51.5t97 18.5q100 0 154.5 -57t54.5 -159q0 -25 -3 -51t-9 -52h-338q11 -75 52 -111.5t116 -36.5q36 0 76 8.5t83 25.5v-103zM727 355q0 50 -30 80.5t-79 30.5q-59 0 -93.5 -35t-42.5 -104h243
q1 3 1.5 9t0.5 19zM173 161q0 -35 21.5 -55t60.5 -20q42 0 77.5 17t58.5 46q-7 20 -11.5 42t-6.5 46h-63q-71 0 -104 -17.5t-33 -58.5z" />
    <glyph glyph-name="Oslashacute" unicode="&#x1fe;" horiz-adv-x="785" 
d="M601 948l-237 -125l-43 71l204 155zM392 -11q-54 0 -101.5 14t-86.5 40l-46 -63l-78 60l52 71q-39 51 -60.5 119.5t-21.5 150.5q0 175 93.5 284t248.5 109q54 0 101.5 -14t86.5 -41l47 64l78 -60l-53 -71q40 -51 61.5 -120t21.5 -151q0 -174 -94 -283t-249 -109zM171 381
q0 -49 9.5 -91.5t26.5 -76.5l305 414q-25 18 -55 28t-65 10q-101 0 -161 -78.5t-60 -205.5zM614 381q0 49 -9.5 91.5t-27.5 76.5l-305 -414q25 -18 55.5 -27.5t64.5 -9.5q101 0 161.5 78.5t60.5 204.5z" />
    <glyph glyph-name="oslashacute" unicode="&#x1ff;" horiz-adv-x="593" 
d="M483 822l-203 -176l-58 60l164 197zM296 -11q-37 0 -70 9t-60 26l-32 -44l-65 45l38 53q-27 36 -42 85.5t-15 108.5q0 127 67 205.5t179 78.5q38 0 71 -9.5t60 -26.5l33 45l65 -45l-39 -54q27 -37 42 -86.5t15 -107.5q0 -127 -67 -205t-180 -78zM163 272q0 -28 4 -52
t11 -44l188 259q-15 10 -32.5 15.5t-37.5 5.5q-63 0 -98 -49.5t-35 -134.5zM430 272q0 27 -4 51t-11 44l-188 -258q15 -10 32 -15t37 -5q62 0 98 49.5t36 133.5z" />
    <glyph glyph-name="Scommaaccent" unicode="&#x218;" horiz-adv-x="570" 
d="M510 208q0 -102 -70.5 -160.5t-195.5 -58.5q-49 0 -94.5 10t-89.5 30v120q41 -27 89 -41.5t97 -14.5q67 0 104.5 27t37.5 75q0 37 -25.5 67.5t-112.5 77.5q-57 31 -83.5 49.5t-45.5 38.5q-29 29 -43 64.5t-14 77.5q0 94 66 149t178 55q46 0 88 -9.5t77 -27.5v-126
q-29 26 -75.5 41t-95.5 15q-56 0 -86 -22.5t-30 -63.5q0 -35 24.5 -63.5t108.5 -72.5q59 -31 86.5 -50t46.5 -39q30 -31 44 -67.5t14 -80.5zM381 -134l-154 -117l-58 60l115 138z" />
    <glyph glyph-name="scommaaccent" unicode="&#x219;" horiz-adv-x="497" 
d="M437 151q0 -73 -55 -117.5t-147 -44.5q-46 0 -91.5 11t-73.5 29v107q13 -12 31.5 -21.5t42.5 -17.5q20 -6 41 -9.5t43 -3.5q47 0 73 14.5t26 41.5q0 22 -19 40t-83 45q-48 21 -70.5 34t-38.5 27q-26 22 -38.5 49.5t-12.5 61.5q0 73 53.5 116t146.5 43q44 0 85 -10.5
t67 -26.5v-100q-36 20 -76.5 31t-78.5 11q-42 0 -64.5 -15t-22.5 -41q0 -22 19 -39.5t83 -44.5q48 -20 70.5 -33t38.5 -27q26 -22 38.5 -49t12.5 -61zM333 -134l-154 -117l-58 60l115 138z" />
    <glyph glyph-name="uni021A" unicode="&#x21a;" horiz-adv-x="550" 
d="M335 654v-654h-120v654h-205v109h530v-109h-205zM362 -134l-154 -117l-58 60l115 138z" />
    <glyph glyph-name="dotlessj" unicode="&#x237;" horiz-adv-x="292" 
d="M-70 -134q45 0 74.5 8t48.5 26q21 19 29 49.5t8 99.5v496h112v-496q0 -87 -18.5 -144t-58.5 -89q-33 -27 -81.5 -39.5t-113.5 -11.5v101z" />
    <glyph glyph-name="schwa" unicode="&#x259;" horiz-adv-x="559" 
d="M73 526q42 16 82 23.5t80 7.5q129 0 201.5 -73.5t72.5 -206.5q0 -131 -68 -209t-184 -78q-99 0 -153 59.5t-54 165.5q0 24 3 50t9 52h338q-10 71 -51 106t-115 35q-37 0 -77.5 -8.5t-83.5 -25.5v102zM152 194q-1 -52 29.5 -83.5t84.5 -31.5q59 0 94 39t40 111h-245
q-1 -8 -2 -17.5t-1 -17.5z" />
    <glyph glyph-name="circumflex" unicode="&#x2c6;" horiz-adv-x="407" 
d="M203 756l-101 -119l-62 51l121 175h85l121 -175l-62 -51z" />
    <glyph glyph-name="caron" unicode="&#x2c7;" horiz-adv-x="407" 
d="M204 748l101 119l62 -51l-121 -175h-85l-121 175l62 51z" />
    <glyph glyph-name="breve" unicode="&#x2d8;" horiz-adv-x="400" 
d="M360 832q0 -81 -43 -131t-117 -50t-117 50t-43 131h83q2 -43 22 -67t55 -24t55 24t22 67h83z" />
    <glyph glyph-name="dotaccent" unicode="&#x2d9;" horiz-adv-x="276" 
d="M216 751q0 -33 -22.5 -55.5t-55.5 -22.5t-55.5 22.5t-22.5 55.5t22.5 55.5t55.5 22.5t55.5 -22.5t22.5 -55.5z" />
    <glyph glyph-name="ring" unicode="&#x2da;" horiz-adv-x="296" 
d="M148 903q53 0 91 -38t38 -91t-38 -91t-91 -38t-91 38t-38 91t38 91t91 38zM148 829q-25 0 -40 -14.5t-15 -40.5q0 -25 15 -40t40 -15t40 15t15 40t-15 40t-40 15z" />
    <glyph glyph-name="ogonek" unicode="&#x2db;" horiz-adv-x="269" 
d="M33 -135q0 37 18.5 70t58.5 65q6 5 12.5 10t15.5 10l84 -20q-38 -22 -61 -53t-23 -60q0 -16 10.5 -25t28.5 -9q11 0 23 3.5t21 9.5v-80q-16 -10 -39.5 -15.5t-46.5 -5.5q-46 0 -74 27.5t-28 72.5z" />
    <glyph glyph-name="tilde" unicode="&#x2dc;" horiz-adv-x="408" 
d="M369 839q1 -87 -26 -133t-75 -43q-20 2 -38.5 12t-43.5 37q-15 16 -21.5 21t-12.5 5q-14 1 -21.5 -17.5t-7.5 -55.5h-82q-1 85 26 131t75 43q22 -2 40.5 -12t43.5 -38q14 -15 20 -19.5t12 -4.5q14 -1 21.5 18t7.5 56h82z" />
    <glyph glyph-name="hungarumlaut" unicode="&#x2dd;" horiz-adv-x="508" 
d="M264 847l-165 -212l-69 48l123 225zM479 812l-196 -184l-60 57l156 204z" />
    <glyph glyph-name="Omega" unicode="&#x3a9;" horiz-adv-x="788" 
d="M206 109q-67 57 -106.5 143.5t-39.5 178.5q0 149 93 245.5t241 96.5t241 -96.5t93 -245.5q0 -92 -39.5 -178.5t-106.5 -143.5h131v-109h-252v109q76 80 111 156t35 159q0 110 -56 174t-157 66q-101 -2 -157 -66t-56 -174q0 -83 35 -159t111 -156v-109h-252v109h131z" />
    <glyph glyph-name="alpha" unicode="&#x3b1;" horiz-adv-x="622" 
d="M542 545l-54 -273l64 -272h-103l-23 137q-31 -71 -78.5 -109.5t-104.5 -38.5q-86 0 -139.5 78.5t-53.5 197.5q0 126 57 208.5t146 82.5q60 0 105 -40t67 -110l10 139h107zM140 273q0 -79 31 -125.5t83 -46.5q48 0 89 43.5t62 119.5q-27 88 -65 134t-86 46
q-47 0 -80.5 -49t-33.5 -122z" />
    <glyph glyph-name="beta" unicode="&#x3b2;" horiz-adv-x="605" 
d="M188 54l23 -278h-121v766q0 124 61.5 192t171.5 68q96 0 154 -56.5t58 -148.5q0 -55 -25 -103t-67 -75q53 -26 82.5 -76.5t29.5 -118.5q0 -103 -61.5 -169t-159.5 -66q-42 0 -80 17t-66 48zM319 690q-68 0 -100.5 -36.5t-32.5 -113.5v-384q34 -28 68.5 -41.5t73.5 -13.5
q58 0 95 37t37 96q0 55 -31 93.5t-83 45.5q-23 -5 -45 -7t-50 -2v103q21 0 43.5 -2t51.5 -7q42 8 68 42.5t26 80.5q0 52 -31.5 80.5t-89.5 28.5z" />
    <glyph glyph-name="delta" unicode="&#x3b4;" horiz-adv-x="539" 
d="M488 244q0 -107 -65.5 -181t-157.5 -74q-91 0 -153 71.5t-62 180.5q0 78 31 144.5t92 117.5q-38 31 -56.5 66t-18.5 78q0 68 43 111.5t114 43.5q55 0 122.5 -20t111.5 -49l-31 -88q-54 22 -104.5 34t-91.5 12q-39 0 -56 -8t-17 -27q0 -24 31.5 -56t102.5 -83
q93 -68 129 -128.5t36 -144.5zM140 254q0 -72 34 -112.5t93 -40.5q58 0 94.5 40.5t36.5 102.5q0 54 -33 99.5t-99 82.5q-49 -17 -87.5 -67t-38.5 -105z" />
    <glyph glyph-name="epsilon" unicode="&#x3b5;" horiz-adv-x="510" 
d="M278 446q-55 0 -81.5 -14.5t-26.5 -45.5q0 -26 26.5 -47t69.5 -27q38 5 67 7t61 2v-103q-38 -1 -68 1t-61 8q-54 -9 -79.5 -25t-25.5 -42q0 -31 30 -48.5t85 -17.5q42 0 75 7.5t65 25.5l45 -71q-37 -33 -87 -50t-108 -17q-91 0 -148 40.5t-57 102.5q0 49 26 83t84 58
q-54 26 -77 56.5t-23 77.5q0 66 58.5 107.5t152.5 41.5q51 0 97.5 -17t78.5 -48l-45 -74q-36 16 -66.5 22.5t-67.5 6.5z" />
    <glyph glyph-name="theta" unicode="&#x3b8;" horiz-adv-x="551" 
d="M275 797q101 0 163.5 -112t62.5 -294t-62.5 -294t-163.5 -112t-163 112t-62 294t62 294t163 112zM275 685q-58 0 -93 -63.5t-41 -181.5h269q-6 118 -41 181.5t-94 63.5zM275 97q59 0 94 64.5t41 183.5h-269q6 -119 40.5 -183.5t93.5 -64.5z" />
    <glyph glyph-name="lambda" unicode="&#x3bb;" horiz-adv-x="522" 
d="M75 778q91 -8 143.5 -55.5t98.5 -177.5l195 -545h-123l-106 337q-11 36 -16 56t-4 25h-3q2 -5 -3 -25t-17 -56l-107 -337h-123l195 545q-11 59 -44.5 91.5t-91.5 40.5q-12 1 -21 1.5t-17 0.5v100h28t16 -1z" />
    <glyph glyph-name="nu" unicode="&#x3bd;" horiz-adv-x="522" 
d="M205 0q-39 152 -85.5 282t-109.5 263h123q41 -88 79 -201.5t59 -216.5h2q43 86 74.5 198.5t41.5 219.5h123q-24 -136 -81.5 -296t-113.5 -249h-112z" />
    <glyph glyph-name="pi" unicode="&#x3c0;" horiz-adv-x="683" 
d="M20 449v96h600v-96h-100v-226q0 -77 13.5 -105t49.5 -28q11 0 22 2t38 12v-96q-32 -12 -49 -15.5t-37 -3.5q-74 0 -111.5 43.5t-37.5 128.5v288h-176v-449h-112v449h-100z" />
    <glyph glyph-name="rho" unicode="&#x3c1;" horiz-adv-x="601" 
d="M188 54l23 -278h-121v769h97v-113q26 56 72 90t99 34q86 0 139.5 -78.5t53.5 -197.5q0 -126 -61 -208.5t-156 -82.5q-42 0 -80 17t-66 48zM347 444q-52 0 -96.5 -43.5t-64.5 -119.5v-123q27 -28 63 -42.5t79 -14.5q55 0 94 49t39 122q0 79 -31 125.5t-83 46.5z" />
    <glyph glyph-name="Wgrave" unicode="&#x1e80;" horiz-adv-x="1015" 
d="M519 823l-237 125l76 101l204 -155zM506 596l-142 -596h-149l-165 763h126l73 -373q8 -41 15 -80.5t18 -100.5q5 -26 7 -39t4 -23h3q4 15 8 33t13 59q11 53 18.5 85.5t15.5 65.5l89 373h136l91 -372q7 -28 14 -58.5t19 -86.5q9 -44 13.5 -64t8.5 -35h3q20 111 28.5 156.5
t16.5 88.5l69 371h126l-165 -763h-149l-142 596h-3z" />
    <glyph glyph-name="wgrave" unicode="&#x1e81;" horiz-adv-x="804" 
d="M310 901l160 -194l-58 -60l-203 176zM378 297l-92 -297h-113l-163 545h121l79 -314q11 -41 16 -65.5t4 -31.5h3q0 7 6 31.5t18 65.5l92 314h112l90 -314q12 -42 18 -66t5 -31h3q0 7 5.5 31t15.5 66l80 314h116l-165 -545h-113l-89 297q-11 39 -17 63t-6 34h-3
q1 -10 -5 -34t-18 -63z" />
    <glyph glyph-name="Wacute" unicode="&#x1e82;" horiz-adv-x="1015" 
d="M712 948l-237 -125l-43 71l204 155zM506 596l-142 -596h-149l-165 763h126l73 -373q8 -41 15 -80.5t18 -100.5q5 -26 7 -39t4 -23h3q4 15 8 33t13 59q11 53 18.5 85.5t15.5 65.5l89 373h136l91 -372q7 -28 14 -58.5t19 -86.5q9 -44 13.5 -64t8.5 -35h3q20 111 28.5 156.5
t16.5 88.5l69 371h126l-165 -763h-149l-142 596h-3z" />
    <glyph glyph-name="wacute" unicode="&#x1e83;" horiz-adv-x="804" 
d="M601 822l-203 -176l-58 60l164 197zM378 297l-92 -297h-113l-163 545h121l79 -314q11 -41 16 -65.5t4 -31.5h3q0 7 6 31.5t18 65.5l92 314h112l90 -314q12 -42 18 -66t5 -31h3q0 7 5.5 31t15.5 66l80 314h116l-165 -545h-113l-89 297q-11 39 -17 63t-6 34h-3
q1 -10 -5 -34t-18 -63z" />
    <glyph glyph-name="Wdieresis" unicode="&#x1e84;" horiz-adv-x="1015" 
d="M710 941q0 -33 -22.5 -55.5t-55.5 -22.5t-55.5 22.5t-22.5 55.5t22.5 55.5t55.5 22.5t55.5 -22.5t22.5 -55.5zM460 941q0 -33 -22.5 -55.5t-55.5 -22.5t-55.5 22.5t-22.5 55.5t22.5 55.5t55.5 22.5t55.5 -22.5t22.5 -55.5zM506 596l-142 -596h-149l-165 763h126l73 -373
q8 -41 15 -80.5t18 -100.5q5 -26 7 -39t4 -23h3q4 15 8 33t13 59q11 53 18.5 85.5t15.5 65.5l89 373h136l91 -372q7 -28 14 -58.5t19 -86.5q9 -44 13.5 -64t8.5 -35h3q20 111 28.5 156.5t16.5 88.5l69 371h126l-165 -763h-149l-142 596h-3z" />
    <glyph glyph-name="wdieresis" unicode="&#x1e85;" horiz-adv-x="804" 
d="M512 852q33 0 55.5 -22.5t22.5 -55.5t-22.5 -55.5t-55.5 -22.5t-55.5 22.5t-22.5 55.5t22.5 55.5t55.5 22.5zM292 852q33 0 55.5 -22.5t22.5 -55.5t-22.5 -55.5t-55.5 -22.5t-55.5 22.5t-22.5 55.5t22.5 55.5t55.5 22.5zM378 297l-92 -297h-113l-163 545h121l79 -314
q11 -41 16 -65.5t4 -31.5h3q0 7 6 31.5t18 65.5l92 314h112l90 -314q12 -42 18 -66t5 -31h3q0 7 5.5 31t15.5 66l80 314h116l-165 -545h-113l-89 297q-11 39 -17 63t-6 34h-3q1 -10 -5 -34t-18 -63z" />
    <glyph glyph-name="Ygrave" unicode="&#x1ef2;" horiz-adv-x="625" 
d="M333 823l-237 125l76 101l204 -155zM373 348v-348h-120v348l-253 415h136l154 -261q6 -10 11.5 -22.5t10.5 -28.5h3q6 15 11.5 28t11.5 23l151 261h136z" />
    <glyph glyph-name="ygrave" unicode="&#x1ef3;" horiz-adv-x="522" 
d="M166 901l160 -194l-58 -60l-203 176zM317 0q-46 -130 -98.5 -177.5t-143.5 -55.5q-7 -1 -16 -1h-28v100q8 0 17 0.5t21 1.5q58 8 91.5 40.5t44.5 91.5l-195 545h123l107 -337q12 -36 17 -56t3 -25h3q-1 5 4 25t16 56l106 337h123z" />
    <glyph glyph-name="thinspace" unicode="&#x2009;" horiz-adv-x="180" 
 />
    <glyph glyph-name="endash" unicode="&#x2013;" horiz-adv-x="604" 
d="M554 323v-101h-504v101h504z" />
    <glyph glyph-name="emdash" unicode="&#x2014;" horiz-adv-x="772" 
d="M722 323v-101h-672v101h672z" />
    <glyph glyph-name="quoteleft" unicode="&#x2018;" horiz-adv-x="226" 
d="M126 474l-96 273l123 22l53 -272z" />
    <glyph glyph-name="quoteright" unicode="&#x2019;" horiz-adv-x="226" 
d="M206 747l-96 -273l-80 23l53 272z" />
    <glyph glyph-name="quotesinglbase" unicode="&#x201a;" horiz-adv-x="252" 
d="M227 86l-142 -251l-75 37l99 258z" />
    <glyph glyph-name="quotedblleft" unicode="&#x201c;" horiz-adv-x="434" 
d="M126 474l-96 273l123 22l53 -272zM334 474l-96 273l123 22l53 -272z" />
    <glyph glyph-name="quotedblright" unicode="&#x201d;" horiz-adv-x="434" 
d="M196 747l-96 -273l-80 23l53 272zM404 747l-96 -273l-80 23l53 272z" />
    <glyph glyph-name="quotedblbase" unicode="&#x201e;" horiz-adv-x="467" 
d="M227 86l-142 -251l-75 37l99 258zM442 86l-142 -251l-75 37l99 258z" />
    <glyph glyph-name="dagger" unicode="&#x2020;" horiz-adv-x="484" 
d="M444 482l-158 8l12 -490h-112l12 490l-158 -8v101l157 -7l-11 187h112l-11 -187l157 7v-101z" />
    <glyph glyph-name="daggerdbl" unicode="&#x2021;" horiz-adv-x="484" 
d="M444 180l-157 8l11 -188h-112l11 188l-157 -8v101l156 -7l-10 118l9 98l-155 -8v101l157 -7l-11 187h112l-11 -187l157 7v-101l-155 8l9 -95l-10 -121l156 7v-101z" />
    <glyph glyph-name="bullet" unicode="&#x2022;" horiz-adv-x="338" 
d="M169 392q50 0 84.5 -34.5t34.5 -84.5q0 -49 -34.5 -84t-84.5 -35q-49 0 -84 35t-35 84q0 50 35 84.5t84 34.5z" />
    <glyph glyph-name="ellipsis" unicode="&#x2026;" horiz-adv-x="868" 
d="M818 68q0 -32 -23 -55t-55 -23t-55 23t-23 55t23 55t55 23t55 -23t23 -55zM512 68q0 -32 -23 -55t-55 -23t-55 23t-23 55t23 55t55 23t55 -23t23 -55zM206 68q0 -32 -23 -55t-55 -23t-55 23t-23 55t23 55t55 23t55 -23t23 -55z" />
    <glyph glyph-name="perthousand" unicode="&#x2030;" horiz-adv-x="1721" 
d="M490 519q0 -123 -52 -187.5t-153 -64.5t-153 64.5t-52 187.5t52 187.5t153 64.5t153 -64.5t52 -187.5zM830 764l-314 -763h-112l314 763h112zM384 519q0 82 -24.5 121t-74.5 39t-74.5 -39t-24.5 -121t24.5 -121t74.5 -39t74.5 39t24.5 121zM1160 242q0 -123 -52 -187.5
t-153 -64.5t-153 64.5t-52 187.5t52 187.5t153 64.5t153 -64.5t52 -187.5zM1641 241q0 -123 -52 -187.5t-153 -64.5t-153 64.5t-52 187.5t52 187.5t153 64.5t153 -64.5t52 -187.5zM1054 242q0 82 -24.5 121t-74.5 39t-74.5 -39t-24.5 -121t24.5 -121t74.5 -39t74.5 39
t24.5 121zM1535 241q0 82 -24.5 121t-74.5 39t-74.5 -39t-24.5 -121t24.5 -121t74.5 -39t74.5 39t24.5 121z" />
    <glyph glyph-name="guilsinglleft" unicode="&#x2039;" horiz-adv-x="389" 
d="M348 82l-53 -82l-255 234v77l255 234l54 -79l-203 -193z" />
    <glyph glyph-name="guilsinglright" unicode="&#x203a;" horiz-adv-x="389" 
d="M41 463l53 82l255 -234v-77l-255 -234l-54 79l203 193z" />
    <glyph glyph-name="asterism" unicode="&#x2042;" horiz-adv-x="1149" 
d="M635 570l97 -118l-82 -60l-80 126l-81 -126l-82 60l97 118l-144 38l31 97l136 -53l-8 139h102l-8 -139l135 53l31 -97zM325 70l97 -118l-82 -60l-80 126l-81 -126l-82 60l97 118l-144 38l31 97l136 -53l-8 139h102l-8 -139l135 53l31 -97zM955 70l97 -118l-82 -60
l-80 126l-81 -126l-82 60l97 118l-144 38l31 97l136 -53l-8 139h102l-8 -139l135 53l31 -97z" />
    <glyph glyph-name="fraction" unicode="&#x2044;" horiz-adv-x="506" 
d="M466 763l-314 -763h-112l314 763h112z" />
    <glyph glyph-name="zerosuperior" unicode="&#x2070;" horiz-adv-x="530" 
d="M470 518q0 -123 -52 -187.5t-153 -64.5t-153 64.5t-52 187.5t52 187.5t153 64.5t153 -64.5t52 -187.5zM364 518q0 82 -24.5 121t-74.5 39t-74.5 -39t-24.5 -121t24.5 -121t74.5 -39t74.5 39t24.5 121z" />
    <glyph glyph-name="i.superior" unicode="&#x2071;" horiz-adv-x="242" 
d="M187 752q0 -28 -19 -46.5t-47 -18.5t-47 18.5t-19 46.5t19 47t47 19t47 -19t19 -47zM173 623v-350h-104v350h104z" />
    <glyph glyph-name="foursuperior" unicode="&#x2074;" horiz-adv-x="490" 
d="M274 273v109h-234v82l214 299h121v-297h60v-84h-60v-109h-101zM144 468l2 -2h128v118v26.5t1 34.5v12h-2q-6 -11 -18.5 -31.5t-25.5 -41.5z" />
    <glyph glyph-name="fivesuperior" unicode="&#x2075;" horiz-adv-x="457" 
d="M402 432q0 -76 -56 -121t-153 -45q-42 0 -74 5.5t-54 15.5v99q29 -14 62 -21t71 -7q46 0 72.5 18.5t26.5 50.5q0 43 -49 60.5t-172 8.5v267h297v-89h-195v-96q108 7 166 -31t58 -115z" />
    <glyph glyph-name="sixsuperior" unicode="&#x2076;" horiz-adv-x="493" 
d="M438 435q0 -75 -51 -122t-135 -47q-93 0 -142.5 61.5t-49.5 174.5q0 131 59 199.5t172 68.5q28 0 60 -5.5t60 -14.5v-100q-34 15 -63 22.5t-55 7.5q-64 0 -97.5 -32t-33.5 -93q24 15 52.5 22.5t58.5 7.5q77 0 121 -40.5t44 -109.5zM337 427q0 37 -23 57.5t-66 20.5
q-26 0 -48.5 -7t-36.5 -20q0 -60 23.5 -92.5t68.5 -32.5q39 0 60.5 19.5t21.5 54.5z" />
    <glyph glyph-name="sevensuperior" unicode="&#x2077;" horiz-adv-x="413" 
d="M373 676l-200 -403h-103l201 395l-1 2h-240v93h343v-87z" />
    <glyph glyph-name="eightsuperior" unicode="&#x2078;" horiz-adv-x="511" 
d="M451 415q0 -64 -56 -106.5t-138 -42.5q-89 0 -143 38t-54 100q0 38 24 70.5t69 54.5q-36 20 -54 45.5t-18 56.5q0 61 49 100t127 39q75 0 122.5 -36t47.5 -91q0 -32 -21 -61t-54 -44q51 -23 75 -53.5t24 -69.5zM326 628q0 26 -19.5 42t-54.5 16q-31 0 -51 -14.5
t-20 -36.5q0 -21 23 -36.5t72 -28.5q25 12 37.5 26.5t12.5 31.5zM350 411q0 26 -31 46.5t-95 36.5q-29 -14 -46 -34t-17 -41q0 -31 25.5 -49.5t67.5 -18.5q44 0 70 16t26 44z" />
    <glyph glyph-name="ninesuperior" unicode="&#x2079;" horiz-adv-x="493" 
d="M336 480q-23 -15 -51 -23t-60 -8q-77 0 -121 41.5t-44 112.5q0 74 51 120.5t135 46.5q93 0 142.5 -61.5t49.5 -174.5q0 -131 -59 -199.5t-172 -68.5q-28 0 -60 5.5t-60 14.5v100q32 -15 61 -22.5t54 -7.5q66 0 99.5 31t34.5 93zM336 558q0 60 -24 92.5t-69 32.5
q-39 0 -60.5 -19.5t-21.5 -54.5q0 -37 23 -57.5t66 -20.5q26 0 48.5 7t37.5 20z" />
    <glyph glyph-name="n.superior" unicode="&#x207f;" horiz-adv-x="466" 
d="M174 521v-248h-104v350h104v-24l2 -2q22 16 48.5 24.5t57.5 8.5q56 0 85 -30t29 -88v-239h-103v214q0 32 -9.5 44.5t-34.5 12.5q-22 0 -43 -6.5t-32 -16.5z" />
    <glyph glyph-name="zeroinferior" unicode="&#x2080;" horiz-adv-x="530" 
d="M473 21q0 -123 -52 -187.5t-153 -64.5t-153 64.5t-52 187.5t52 187.5t153 64.5t153 -64.5t52 -187.5zM367 21q0 82 -24.5 121t-74.5 39t-74.5 -39t-24.5 -121t24.5 -121t74.5 -39t74.5 39t24.5 121z" />
    <glyph glyph-name="oneinferior" unicode="&#x2081;" horiz-adv-x="406" 
d="M366 -135v-89h-312v89h106v256h-110v78q14 0 26 1.5t22 3.5q13 4 23 9t18 12q11 9 16 19.5t5 21.5h100v-401h106z" />
    <glyph glyph-name="twoinferior" unicode="&#x2082;" horiz-adv-x="443" 
d="M383 -138v-86h-333v96q12 11 59 52.5t69 63.5q55 50 76 80.5t21 56.5q0 29 -22.5 45t-62.5 16q-35 0 -70 -10.5t-62 -29.5v93q29 16 67.5 25.5t77.5 9.5q82 0 127 -38t45 -109q0 -50 -41.5 -104.5t-163.5 -158.5l2 -2h211z" />
    <glyph glyph-name="threeinferior" unicode="&#x2083;" horiz-adv-x="433" 
d="M396 -82q0 -68 -55.5 -108.5t-148.5 -40.5q-41 0 -73.5 6t-55.5 17v97q29 -15 62 -22.5t70 -7.5q46 0 72.5 17t26.5 46q0 30 -28 44.5t-94 14.5h-56v89h56q50 0 82 16.5t32 44.5q0 26 -21.5 39t-62.5 13q-17 0 -34 -2.5t-34 -7.5q-19 -6 -34.5 -13t-27.5 -15v100
q25 13 63 20.5t80 7.5q81 0 127 -35t46 -94q0 -41 -21.5 -72t-57.5 -42v-2q40 -10 63.5 -39.5t23.5 -70.5z" />
    <glyph glyph-name="fourinferior" unicode="&#x2084;" horiz-adv-x="490" 
d="M271 -224v109h-234v82l214 299h121v-297h60v-84h-60v-109h-101zM141 -29l2 -2h128v118v26.5t1 34.5v12h-2q-6 -11 -18.5 -31.5t-25.5 -41.5z" />
    <glyph glyph-name="fiveinferior" unicode="&#x2085;" horiz-adv-x="457" 
d="M403 -65q0 -76 -56 -121t-153 -45q-42 0 -74 5.5t-54 15.5v99q29 -14 62 -21t71 -7q46 0 72.5 18.5t26.5 50.5q0 43 -49 60.5t-172 8.5v267h297v-89h-195v-96q108 7 166 -31t58 -115z" />
    <glyph glyph-name="sixinferior" unicode="&#x2086;" horiz-adv-x="493" 
d="M439 -62q0 -75 -51 -122t-135 -47q-93 0 -142.5 61.5t-49.5 174.5q0 131 59 199.5t172 68.5q28 0 60 -5.5t60 -14.5v-100q-34 15 -63 22.5t-55 7.5q-64 0 -97.5 -32t-33.5 -93q24 15 52.5 22.5t58.5 7.5q77 0 121 -40.5t44 -109.5zM338 -70q0 37 -23 57.5t-66 20.5
q-26 0 -48.5 -7t-36.5 -20q0 -60 23.5 -92.5t68.5 -32.5q39 0 60.5 19.5t21.5 54.5z" />
    <glyph glyph-name="seveninferior" unicode="&#x2087;" horiz-adv-x="413" 
d="M374 179l-200 -403h-103l201 395l-1 2h-240v93h343v-87z" />
    <glyph glyph-name="eightinferior" unicode="&#x2088;" horiz-adv-x="511" 
d="M454 -82q0 -64 -56 -106.5t-138 -42.5q-89 0 -143 38t-54 100q0 38 24 70.5t69 54.5q-36 20 -54 45.5t-18 56.5q0 61 49 100t127 39q75 0 122.5 -36t47.5 -91q0 -32 -21 -61t-54 -44q51 -23 75 -53.5t24 -69.5zM329 131q0 26 -19.5 42t-54.5 16q-31 0 -51 -14.5
t-20 -36.5q0 -21 23 -36.5t72 -28.5q25 12 37.5 26.5t12.5 31.5zM353 -86q0 26 -31 46.5t-95 36.5q-29 -14 -46 -34t-17 -41q0 -31 25.5 -49.5t67.5 -18.5q44 0 70 16t26 44z" />
    <glyph glyph-name="nineinferior" unicode="&#x2089;" horiz-adv-x="493" 
d="M335 -17q-23 -15 -51 -23t-60 -8q-77 0 -121 41.5t-44 112.5q0 74 51 120.5t135 46.5q93 0 142.5 -61.5t49.5 -174.5q0 -131 -59 -199.5t-172 -68.5q-28 0 -60 5.5t-60 14.5v100q32 -15 61 -22.5t54 -7.5q66 0 99.5 31t34.5 93zM335 61q0 60 -24 92.5t-69 32.5
q-39 0 -60.5 -19.5t-21.5 -54.5q0 -37 23 -57.5t66 -20.5q26 0 48.5 7t37.5 20z" />
    <glyph glyph-name="Euro" unicode="&#x20ac;" horiz-adv-x="679" 
d="M629 45q-39 -25 -95 -40.5t-111 -15.5q-113 0 -193 68t-112 182h-78v101h61q0 10 -0.5 20.5t-0.5 20.5q0 12 0.5 24t1.5 24h-62v101h81q33 111 115 177.5t196 66.5q54 0 107 -14t85 -38v-117q-42 29 -89 44.5t-92 15.5q-69 0 -119.5 -35.5t-76.5 -99.5h297v-101h-321
q-1 -11 -1.5 -23t-0.5 -24q0 -11 0.5 -21.5t1.5 -20.5h321v-101h-300q25 -66 75 -103t118 -37q47 0 99.5 17t92.5 46v-117z" />
    <glyph glyph-name="litre" unicode="&#x2113;" horiz-adv-x="450" 
d="M372 9q-20 -9 -53 -14t-63 -5q-62 0 -101.5 36.5t-52.5 106.5l-48 -42l-51 72l92 78v322q0 116 44 177.5t126 61.5q74 0 114.5 -53.5t40.5 -147.5q0 -106 -52 -202.5t-160 -186.5q5 -73 24 -97.5t61 -24.5q20 0 42.5 4t36.5 10v-95zM207 546v-219q56 56 80 116.5
t24 140.5q0 63 -12 92t-39 29q-31 0 -42 -35t-11 -124z" />
    <glyph glyph-name="Ndblstruck" unicode="&#x2115;" horiz-adv-x="807" 
d="M596 763h121v-763h-155l-294 298q-12 14 -26.5 32t-30.5 39h-3q2 -23 2.5 -42t0.5 -34v-293h-121v763h155l294 -298q13 -13 27 -31t30 -40h3q-1 24 -2 43t-1 33v293zM599 121h4q-3 22 -5 49t-2 62l-362 373q-7 7 -12 13t-15 27h-4q4 -23 6 -50t2 -64l362 -373
q10 -10 15.5 -17.5t10.5 -19.5z" />
    <glyph glyph-name="numero" unicode="&#x2116;" horiz-adv-x="1198" 
d="M1148 619q0 -83 -48 -132.5t-130 -49.5t-130 49.5t-48 132.5t48 132.5t130 49.5t130 -49.5t48 -132.5zM211 453v-453h-121v763h121l283 -458q13 -20 27.5 -49t31.5 -67h4q-3 38 -4.5 68t-1.5 53v453h121v-763h-121l-283 458q-16 26 -30.5 55t-28.5 61h-4q3 -32 4.5 -62
t1.5 -59zM1044 619q0 46 -19.5 71.5t-54.5 25.5q-36 0 -55 -25.5t-19 -71.5t19 -71.5t55 -25.5q35 0 54.5 25.5t19.5 71.5zM1138 374v-101h-336v101h336z" />
    <glyph glyph-name="soundcopyright" unicode="&#x2117;" horiz-adv-x="858" 
d="M429 773q165 0 272 -111t107 -281t-107 -280.5t-272 -110.5t-272 110.5t-107 280.5t107 281t272 111zM429 676q-123 0 -203 -83.5t-80 -211.5t80 -211.5t203 -83.5t203 83.5t80 211.5t-80 211.5t-203 83.5zM400 293v-135h-98v433h130q88 0 133.5 -37t45.5 -110
q0 -72 -49 -111.5t-137 -39.5h-25zM432 505h-32v-126h25q44 0 66 16t22 48q0 31 -20.5 46.5t-60.5 15.5z" />
    <glyph glyph-name="Rdblstruck" unicode="&#x211d;" horiz-adv-x="898" 
d="M211 654v-654h-121v763h412q147 0 228 -61t81 -172q0 -62 -30.5 -116.5t-79.5 -83.5l167 -330h-141l-140 301q-10 -3 -23 -4t-43 -1l129 -296h-131l-114 292h-13v-292h-111v654h-70zM700 524q0 64 -36.5 102.5t-96.5 38.5q28 -23 45.5 -59.5t17.5 -75.5q0 -47 -20.5 -85
t-56.5 -58q66 2 106.5 39t40.5 98zM519 527q0 67 -34.5 103t-92.5 34v-275q63 2 95 37t32 101z" />
    <glyph glyph-name="trademark" unicode="&#x2122;" horiz-adv-x="1134" 
d="M280 669v-396h-108v396h-142v94h393v-94h-143zM605 479l-6 -206h-106l29 490h112l114 -284q11 -27 18 -47.5t11 -36.5h2q7 24 14 44.5t15 40.5l114 283h112l30 -490h-107l-7 206q0 28 0.5 55t2.5 53h-2q-6 -26 -14 -53t-18 -56l-89 -205h-104l-90 205q-10 28 -17.5 55.5
t-13.5 53.5h-3q2 -26 3 -53t0 -55z" />
    <glyph glyph-name="Zdblstruck" unicode="&#x2124;" horiz-adv-x="735" 
d="M70 654v109h595v-104l-249 -547l3 -3h256v-109h-615v105l249 546l-3 3h-236zM202 109h75l249 542l-3 3h-75l-249 -542z" />
    <glyph glyph-name="estimated" unicode="&#x212e;" horiz-adv-x="771" 
d="M667 203h6v-77q-45 -65 -116 -100.5t-155 -35.5q-146 0 -244 95t-98 241q0 140 91.5 232t234.5 92t234 -95t91 -239q0 -11 -0.5 -21t-2.5 -21h-522v-133q38 -46 95 -71t122 -25q82 0 155.5 44.5t108.5 113.5zM577 519q-37 38 -85.5 57.5t-105.5 19.5q-61 0 -112.5 -22.5
t-87.5 -64.5v-183h391v193z" />
    <glyph glyph-name="arrowleft" unicode="&#x2190;" horiz-adv-x="1020" 
d="M970 222h-623v-130l-347 180v1l347 180v-130h623v-101z" />
    <glyph glyph-name="arrowup" unicode="&#x2191;" horiz-adv-x="361" 
d="M130 -213v623h-130l180 347h1l180 -347h-130v-623h-101z" />
    <glyph glyph-name="arrowright" unicode="&#x2192;" horiz-adv-x="1020" 
d="M50 323h623v130l347 -180v-1l-347 -180v130h-623v101z" />
    <glyph glyph-name="arrowdown" unicode="&#x2193;" horiz-adv-x="361" 
d="M231 757v-623h130l-180 -347h-1l-180 347h130v623h101z" />
    <glyph glyph-name="arrowleftfrombar" unicode="&#x21a4;" horiz-adv-x="1020" 
d="M327 456l-143 -133h685v130h101v-361h-101v130h-684l142 -133l-72 -72l-255 255v1l255 255z" />
    <glyph glyph-name="arrowupfrombar" unicode="&#x21a5;" horiz-adv-x="511" 
d="M439 430l-133 143v-685h130v-101h-361v101h130v684l-133 -142l-72 72l255 255h1l255 -255z" />
    <glyph glyph-name="arrowrightfrombar" unicode="&#x21a6;" horiz-adv-x="1020" 
d="M693 89l143 133h-685v-130h-101v361h101v-130h684l-142 133l72 72l255 -255v-1l-255 -255z" />
    <glyph glyph-name="arrowdownfrombar" unicode="&#x21a7;" horiz-adv-x="511" 
d="M72 114l133 -143v685h-130v101h361v-101h-130v-684l133 142l72 -72l-255 -255h-1l-255 255z" />
    <glyph glyph-name="dblarrowleftstroke" unicode="&#x21cd;" horiz-adv-x="1120" 
d="M519 -144l124 265h-348l133 -133l-72 -72l-356 356v1l356 356l72 -72l-133 -133h489l144 308l92 -43l-124 -265h174v-101h-221l-47 -101h268v-101h-315l-144 -308zM193 323l-50 -50v-1l50 -50h497l47 101h-544z" />
    <glyph glyph-name="dblarrowleftrightstroke" unicode="&#x21ce;" horiz-adv-x="1439" 
d="M470 -144l124 265h-299l133 -133l-72 -72l-356 356v1l356 356l72 -72l-133 -133h440l144 308l92 -43l-124 -265h297l-133 133l72 72l356 -356v-1l-356 -356l-72 72l133 133h-438l-144 -308zM193 323l-50 -50v-1l50 -50h448l47 101h-495zM1246 222l50 50v1l-50 50h-446
l-47 -101h493z" />
    <glyph glyph-name="dblarrowrightstroke" unicode="&#x21cf;" horiz-adv-x="1120" 
d="M100 -144l124 265h-174v101h221l47 101h-268v101h315l144 308l92 -43l-124 -265h348l-133 133l72 72l356 -356v-1l-356 -356l-72 72l133 133h-489l-144 -308zM927 222l50 50v1l-50 50h-497l-47 -101h544z" />
    <glyph glyph-name="arrowdblleft" unicode="&#x21d0;" horiz-adv-x="1120" 
d="M428 557l-133 -133h775v-101h-877l-50 -50v-1l50 -50h877v-101h-775l133 -133l-72 -72l-356 356v1l356 356z" />
    <glyph glyph-name="arrowdblright" unicode="&#x21d2;" horiz-adv-x="1120" 
d="M692 -12l133 133h-775v101h877l50 50v1l-50 50h-877v101h775l-133 133l72 72l356 -356v-1l-356 -356z" />
    <glyph glyph-name="arrowdblboth" unicode="&#x21d4;" horiz-adv-x="1439" 
d="M428 557l-133 -133h849l-133 133l72 72l356 -356v-1l-356 -356l-72 72l133 133h-849l133 -133l-72 -72l-356 356v1l356 356zM1246 222l50 50v1l-50 50h-1053l-50 -50v-1l50 -50h1053z" />
    <glyph glyph-name="partialdiff" unicode="&#x2202;" horiz-adv-x="612" 
d="M552 292q0 -140 -65 -221.5t-181 -81.5q-120 0 -183 73t-63 210q0 127 59.5 205.5t159.5 78.5q26 0 49.5 -6t46.5 -19q-41 59 -105 107t-151 87l76 76q164 -74 260.5 -210t96.5 -299zM174 272q0 -93 32.5 -137t98.5 -44q67 0 100 44.5t33 136.5t-33 137t-100 45
q-66 0 -98.5 -44t-32.5 -138z" />
    <glyph glyph-name="emptyset" unicode="&#x2205;" horiz-adv-x="865" 
d="M432 -11q-55 0 -104 11.5t-90 33.5l-40 -54l-78 60l39 52q-52 52 -80.5 126t-28.5 163q0 175 104.5 284t277.5 109q55 0 104.5 -12t90.5 -34l40 55l78 -60l-39 -53q52 -52 80.5 -126t28.5 -163q0 -174 -104.5 -283t-278.5 -109zM171 381q0 -57 15.5 -106t43.5 -85
l329 446q-28 14 -59.5 21.5t-67.5 7.5q-119 0 -190 -78.5t-71 -205.5zM694 381q0 57 -15.5 106t-44.5 86l-328 -446q27 -14 59 -21.5t67 -7.5q119 0 190.5 78.5t71.5 204.5z" />
    <glyph glyph-name="Delta" unicode="&#x2206;" horiz-adv-x="762" 
d="M35 0v12l340 751h12l340 -751v-12h-692zM566 103l-186 434l-182 -434h368z" />
    <glyph glyph-name="element" unicode="&#x2208;" horiz-adv-x="794" 
d="M734 180v-110h-293q-188 0 -284.5 78.5t-96.5 232.5q0 156 94 233.5t287 77.5h293v-110h-283q-127 0 -194 -37t-82 -113h519v-101h-520q14 -77 81 -114t196 -37h283z" />
    <glyph glyph-name="notelement" unicode="&#x2209;" horiz-adv-x="794" 
d="M441 70q-17 0 -33 0.5t-31 1.5l-30 -72h-112l37 90q-105 30 -158.5 103t-53.5 188q0 156 94 233.5t287 77.5h79l29 71h112l-29 -71h102v-110h-147l-62 -150h169v-101h-211l-62 -150q7 -1 14.5 -1h15.5h283v-110h-293zM451 582q-127 0 -194 -37t-82 -113h238l62 150h-24z
M174 331q10 -53 44.5 -87.5t96.5 -49.5l56 137h-197z" />
    <glyph glyph-name="suchthat" unicode="&#x220b;" horiz-adv-x="794" 
d="M734 381q0 -156 -94 -233.5t-287 -77.5h-293v110h283q127 0 194 37t82 113h-519v101h520q-14 77 -81 114t-196 37h-283v110h293q188 0 284.5 -78.5t96.5 -232.5z" />
    <glyph glyph-name="notcontains" unicode="&#x220c;" horiz-adv-x="794" 
d="M353 70h-79l-29 -70h-112l29 70h-102v110h147l62 151h-169v101h211l61 150h-14h-15h-283v110h293q17 0 33 -0.5t31 -1.5l30 73h112l-38 -91q106 -30 159.5 -103t53.5 -188q0 -156 -94 -233.5t-287 -77.5zM423 432h197q-10 53 -44.5 87t-96.5 49zM343 180q128 0 195 37
t82 114h-239l-62 -151h24z" />
    <glyph glyph-name="product" unicode="&#x220f;" horiz-adv-x="762" 
d="M506 -78v740h-249v-740h-112v740h-95v101h672v-101h-104v-740h-112z" />
    <glyph glyph-name="summation" unicode="&#x2211;" horiz-adv-x="614" 
d="M554 662h-339l260 -315l-260 -324h339v-101h-494v76l280 349l-280 340v76h494v-101z" />
    <glyph glyph-name="minus" unicode="&#x2212;" horiz-adv-x="724" 
d="M624 323v-101h-524v101h524z" />
    <glyph glyph-name="bulletoperator" unicode="&#x2219;" horiz-adv-x="256" 
d="M206 273q0 -32 -23 -55t-55 -23t-55 23t-23 55t23 55t55 23t55 -23t23 -55z" />
    <glyph glyph-name="radical" unicode="&#x221a;" horiz-adv-x="705" 
d="M60 291v101h205l58 -174q11 -31 16 -51t5 -30h3q1 11 6.5 31t14.5 50l174 545h123l-264 -763h-112l-109 291h-120z" />
    <glyph glyph-name="infinity" unicode="&#x221e;" horiz-adv-x="869" 
d="M619 509q91 0 150.5 -64t59.5 -166q0 -107 -59 -173t-151 -66q-63 0 -111.5 28t-81.5 82q-24 -49 -71.5 -79.5t-104.5 -30.5q-91 0 -150.5 64t-59.5 166q0 107 59 173t152 66q62 0 110.5 -28t81.5 -82q24 49 71.5 79.5t104.5 30.5zM143 276q0 -60 32.5 -95.5t82.5 -35.5
q43 0 77 24.5t56 70.5q-24 83 -59 123.5t-82 40.5q-46 0 -76.5 -35.5t-30.5 -92.5zM726 273q0 60 -32.5 95.5t-83.5 35.5q-42 0 -75.5 -24.5t-55.5 -70.5q24 -83 59 -123.5t82 -40.5q45 0 75.5 35.5t30.5 92.5z" />
    <glyph glyph-name="intersection" unicode="&#x2229;" horiz-adv-x="802" 
d="M90 293q0 188 78.5 284.5t232.5 96.5q156 0 233.5 -94t77.5 -287v-293h-110v283q0 147 -49.5 214t-152.5 67t-151.5 -66.5t-48.5 -214.5v-283h-110v293z" />
    <glyph glyph-name="union" unicode="&#x222a;" horiz-adv-x="802" 
d="M712 370q0 -188 -78.5 -284.5t-232.5 -96.5q-156 0 -233.5 94t-77.5 287v293h110v-283q0 -147 49.5 -214t152.5 -67t151.5 66.5t48.5 214.5v283h110v-293z" />
    <glyph glyph-name="integral" unicode="&#x222b;" horiz-adv-x="427" 
d="M-10 -117q12 -7 30 -12t35 -5q43 0 62 32.5t19 107.5v522q0 117 49 179.5t143 62.5q17 0 36 -3t33 -8v-106q-12 7 -30 12t-35 5q-43 0 -62 -32.5t-19 -107.5v-522q0 -117 -49 -179.5t-143 -62.5q-17 0 -36 3t-33 8v106z" />
    <glyph glyph-name="approxequal" unicode="&#x2248;" horiz-adv-x="724" 
d="M390 462q31 -23 44.5 -30t24.5 -7q26 0 37.5 21t11.5 74h107q6 -100 -32 -157t-113 -57q-31 0 -62.5 13t-82.5 51q-31 24 -44.5 30.5t-23.5 6.5q-27 0 -38 -20.5t-11 -74.5h-107q-5 101 33 157.5t111 56.5q31 0 62.5 -13t82.5 -51zM390 175q31 -23 44.5 -30t24.5 -7
q26 0 37.5 21t11.5 74h107q6 -100 -32 -157t-113 -57q-31 0 -62.5 13t-82.5 51q-31 24 -44.5 30.5t-23.5 6.5q-27 0 -38 -20.5t-11 -74.5h-107q-5 101 33 157.5t111 56.5q31 0 62.5 -13t82.5 -51z" />
    <glyph glyph-name="notequal" unicode="&#x2260;" horiz-adv-x="724" 
d="M624 101h-276l-41 -101h-112l41 101h-136v101h178l57 141h-235v101h277l41 101h112l-41 -101h135v-101h-177l-57 -141h234v-101z" />
    <glyph glyph-name="lessequal" unicode="&#x2264;" horiz-adv-x="724" 
d="M620 252l-35 -101l-485 163v99l485 162l35 -100l-345 -112zM624 101v-101h-524v101h524z" />
    <glyph glyph-name="greaterequal" unicode="&#x2265;" horiz-adv-x="724" 
d="M624 314l-485 -163l-35 101l345 111l-345 112l35 100l485 -162v-99zM100 0v101h524v-101h-524z" />
    <glyph glyph-name="propersubset" unicode="&#x2282;" horiz-adv-x="794" 
d="M441 70q-188 0 -284.5 78.5t-96.5 232.5q0 156 94 233.5t287 77.5h293v-110h-283q-147 0 -214 -49.5t-67 -152.5t66.5 -151.5t214.5 -48.5h283v-110h-293z" />
    <glyph glyph-name="propersuperset" unicode="&#x2283;" horiz-adv-x="794" 
d="M734 381q0 -154 -96.5 -232.5t-284.5 -78.5h-293v110h283q148 0 214.5 48.5t66.5 151.5t-67 152.5t-214 49.5h-283v110h293q193 0 287 -77.5t94 -233.5z" />
    <glyph glyph-name="intersectionarray" unicode="&#x22c2;" horiz-adv-x="802" 
d="M90 293q0 188 78.5 284.5t232.5 96.5q156 0 233.5 -94t77.5 -287v-293h-110v283q0 147 -49.5 214t-152.5 67t-151.5 -66.5t-48.5 -214.5v-283h-110v293z" />
    <glyph glyph-name="unionarray" unicode="&#x22c3;" horiz-adv-x="802" 
d="M712 370q0 -188 -78.5 -284.5t-232.5 -96.5q-156 0 -233.5 94t-77.5 287v293h110v-283q0 -147 49.5 -214t152.5 -67t151.5 66.5t48.5 214.5v283h110v-293z" />
    <glyph glyph-name="triangleupblack" unicode="&#x25b2;" horiz-adv-x="480" 
d="M240 450l200 -354h-400z" />
    <glyph glyph-name="trianglerightblack" unicode="&#x25b6;" horiz-adv-x="468" 
d="M80 477l348 -204l-348 -203v407z" />
    <glyph glyph-name="triangledownblack" unicode="&#x25bc;" horiz-adv-x="480" 
d="M240 96l-200 354h400z" />
    <glyph glyph-name="triangleleftblack" unicode="&#x25c0;" horiz-adv-x="468" 
d="M388 70l-348 204l348 203v-407z" />
    <glyph glyph-name="lozenge" unicode="&#x25ca;" horiz-adv-x="585" 
d="M555 382v-2l-260 -391h-4l-261 391v2l261 392h4zM293 168l134 213l-134 213l-135 -213z" />
    <glyph glyph-name="circlewhite" unicode="&#x25cb;" horiz-adv-x="454" 
d="M415 273q0 -78 -55 -133t-133 -55t-133 55t-55 133t55 133t133 55t133 -55t55 -133zM319 273q0 38 -27 65t-65 27t-65 -27t-27 -65t27 -65t65 -27t65 27t27 65z" />
    <glyph glyph-name="circleblack" unicode="&#x25cf;" horiz-adv-x="454" 
d="M415 273q0 -78 -55 -133t-133 -55t-133 55t-55 133t55 133t133 55t133 -55t55 -133z" />
    <glyph glyph-name="largecircle" unicode="&#x25ef;" horiz-adv-x="482" 
d="M50 273q0 85 53 138t138 53q84 0 137.5 -53.5t53.5 -137.5t-53.5 -137.5t-137.5 -53.5q-85 0 -138 53t-53 138zM330 273q0 41 -24.5 66t-64.5 25t-64.5 -25t-24.5 -66q0 -40 24.5 -65t64.5 -25t64.5 25t24.5 65z" />
    <glyph glyph-name="squaremediumwhite" unicode="&#x25fb;" horiz-adv-x="474" 
d="M414 450v-354h-354v354h354zM324 360h-174v-174h174v174z" />
    <glyph glyph-name="squaremediumblack" unicode="&#x25fc;" horiz-adv-x="474" 
d="M414 450v-354h-354v354h354z" />
    <glyph glyph-name="checkbox" unicode="&#x2610;" horiz-adv-x="723" 
d="M80 545h563v-545h-563v545zM533 449h-343v-353h343v353z" />
    <glyph glyph-name="checkboxchekced" unicode="&#x2611;" horiz-adv-x="723" 
d="M712 533l-69 -77v-456h-563v545h539l38 42zM190 96h343v237l-163 -182l-144 180l58 50l88 -111l161 179h-343v-353z" />
    <glyph glyph-name="checkboxx" unicode="&#x2612;" horiz-adv-x="723" 
d="M80 545h563v-545h-563v545zM239 449l122 -122l122 122h-244zM416 273l117 -118v235zM190 389v-233l117 117zM239 96h244l-122 122z" />
    <glyph glyph-name="parendblleft" unicode="&#x2e28;" horiz-adv-x="556" 
d="M182 284q0 -132 37 -252t106 -212l-77 -55q-86 101 -132 235.5t-46 282.5t46 283t132 237l77 -55q-69 -91 -106 -211.5t-37 -252.5zM393 284q0 -132 37 -252t106 -212l-77 -55q-86 101 -132 235.5t-46 282.5t46 283t132 237l77 -55q-69 -91 -106 -211.5t-37 -252.5z" />
    <glyph glyph-name="parendblright" unicode="&#x2e29;" horiz-adv-x="556" 
d="M163 283q0 132 -37 252t-106 212l77 55q86 -101 132 -235.5t46 -282.5t-46 -283t-132 -237l-77 55q69 91 106 211.5t37 252.5zM374 283q0 132 -37 252t-106 212l77 55q86 -101 132 -235.5t46 -282.5t-46 -283t-132 -237l-77 55q69 91 106 211.5t37 252.5z" />
    <glyph glyph-name="whitesquarebracketleft" unicode="&#x301a;" horiz-adv-x="512" 
d="M70 -224v1015h422v-94h-99v-827h99v-94h-422zM281 -130v827h-99v-827h99z" />
    <glyph glyph-name="whitesquarebracketright" unicode="&#x301b;" horiz-adv-x="512" 
d="M20 697v94h422v-1015h-422v94h99v827h-99zM231 697v-827h99v827h-99z" />
    <glyph glyph-name="A.small" unicode="&#xe000;" horiz-adv-x="563" 
d="M184 116l-39 -116h-115l190 546h124l189 -546h-115l-39 116h-195zM281 435q-11 -41 -19 -68t-16 -51l-36 -107h144l-35 107q-9 27 -17.5 56.5t-17.5 62.5h-3z" />
    <glyph glyph-name="AE.small" unicode="&#xe001;" horiz-adv-x="812" 
d="M30 0l374 546h339v-93h-216v-127h203v-93h-203v-140h225v-93h-335v116h-192l-76 -116h-119zM286 209h131v200z" />
    <glyph glyph-name="AEacute.small" unicode="&#xe002;" horiz-adv-x="812" 
d="M725 822l-203 -176l-58 60l164 197zM30 0l374 546h339v-93h-216v-127h203v-93h-203v-140h225v-93h-335v116h-192l-76 -116h-119zM286 209h131v200z" />
    <glyph glyph-name="Aacute.small" unicode="&#xe003;" horiz-adv-x="563" 
d="M480 822l-203 -176l-58 60l164 197zM184 116l-39 -116h-115l190 546h124l189 -546h-115l-39 116h-195zM281 435q-11 -41 -19 -68t-16 -51l-36 -107h144l-35 107q-9 27 -17.5 56.5t-17.5 62.5h-3z" />
    <glyph glyph-name="Abreve.small" unicode="&#xe004;" horiz-adv-x="563" 
d="M442 832q0 -81 -43 -131t-117 -50t-117 50t-43 131h83q2 -43 22 -67t55 -24t55 24t22 67h83zM184 116l-39 -116h-115l190 546h124l189 -546h-115l-39 116h-195zM281 435q-11 -41 -19 -68t-16 -51l-36 -107h144l-35 107q-9 27 -17.5 56.5t-17.5 62.5h-3z" />
    <glyph glyph-name="Acircumflex.small" unicode="&#xe005;" horiz-adv-x="563" 
d="M282 756l-101 -119l-62 51l121 175h85l121 -175l-62 -51zM184 116l-39 -116h-115l190 546h124l189 -546h-115l-39 116h-195zM281 435q-11 -41 -19 -68t-16 -51l-36 -107h144l-35 107q-9 27 -17.5 56.5t-17.5 62.5h-3z" />
    <glyph glyph-name="Adieresis.small" unicode="&#xe006;" horiz-adv-x="563" 
d="M392 852q33 0 55.5 -22.5t22.5 -55.5t-22.5 -55.5t-55.5 -22.5t-55.5 22.5t-22.5 55.5t22.5 55.5t55.5 22.5zM172 852q33 0 55.5 -22.5t22.5 -55.5t-22.5 -55.5t-55.5 -22.5t-55.5 22.5t-22.5 55.5t22.5 55.5t55.5 22.5zM184 116l-39 -116h-115l190 546h124l189 -546
h-115l-39 116h-195zM281 435q-11 -41 -19 -68t-16 -51l-36 -107h144l-35 107q-9 27 -17.5 56.5t-17.5 62.5h-3z" />
    <glyph glyph-name="Agrave.small" unicode="&#xe007;" horiz-adv-x="563" 
d="M185 901l160 -194l-58 -60l-203 176zM184 116l-39 -116h-115l190 546h124l189 -546h-115l-39 116h-195zM281 435q-11 -41 -19 -68t-16 -51l-36 -107h144l-35 107q-9 27 -17.5 56.5t-17.5 62.5h-3z" />
    <glyph glyph-name="Amacron.small" unicode="&#xe008;" horiz-adv-x="563" 
d="M443 791v-92h-322v92h322zM184 116l-39 -116h-115l190 546h124l189 -546h-115l-39 116h-195zM281 435q-11 -41 -19 -68t-16 -51l-36 -107h144l-35 107q-9 27 -17.5 56.5t-17.5 62.5h-3z" />
    <glyph glyph-name="Aogonek.small" unicode="&#xe009;" horiz-adv-x="564" 
d="M533 -214q-16 -10 -39.5 -15.5t-46.5 -5.5q-46 0 -74 27.5t-28 72.5q0 37 18.5 70t58.5 65h-4l-39 116h-195l-39 -116h-115l190 546h124l189 -546h1q-38 -22 -61 -53t-23 -60q0 -16 10.5 -25t28.5 -9q11 0 23 3.5t21 9.5v-80zM281 435q-11 -41 -19 -68t-16 -51l-36 -107
h144l-35 107q-9 27 -17.5 56.5t-17.5 62.5h-3z" />
    <glyph glyph-name="Aring.small" unicode="&#xe00a;" horiz-adv-x="563" 
d="M282 903q53 0 91 -38t38 -91t-38 -91t-91 -38t-91 38t-38 91t38 91t91 38zM282 829q-25 0 -40 -14.5t-15 -40.5q0 -25 15 -40t40 -15t40 15t15 40t-15 40t-40 15zM184 116l-39 -116h-115l190 546h124l189 -546h-115l-39 116h-195zM281 435q-11 -41 -19 -68t-16 -51
l-36 -107h144l-35 107q-9 27 -17.5 56.5t-17.5 62.5h-3z" />
    <glyph glyph-name="Aringacute.small" unicode="&#xe00b;" horiz-adv-x="563" 
d="M477 1040l-203 -176l-58 60l164 197zM279 839q53 0 91 -38t38 -91t-38 -91t-91 -38t-91 38t-38 91t38 91t91 38zM279 765q-25 0 -40 -14.5t-15 -40.5q0 -25 15 -40t40 -15t40 15t15 40t-15 40t-40 15zM184 116l-39 -116h-115l190 546h124l189 -546h-115l-39 116h-195z
M281 435q-11 -41 -19 -68t-16 -51l-36 -107h144l-35 107q-9 27 -17.5 56.5t-17.5 62.5h-3z" />
    <glyph glyph-name="Atilde.small" unicode="&#xe00c;" horiz-adv-x="563" 
d="M446 839q1 -87 -26 -133t-75 -43q-20 2 -38.5 12t-43.5 37q-15 16 -21.5 21t-12.5 5q-14 1 -21.5 -17.5t-7.5 -55.5h-82q-1 85 26 131t75 43q22 -2 40.5 -12t43.5 -38q14 -15 20 -19.5t12 -4.5q14 -1 21.5 18t7.5 56h82zM184 116l-39 -116h-115l190 546h124l189 -546
h-115l-39 116h-195zM281 435q-11 -41 -19 -68t-16 -51l-36 -107h144l-35 107q-9 27 -17.5 56.5t-17.5 62.5h-3z" />
    <glyph glyph-name="B.small" unicode="&#xe00d;" horiz-adv-x="541" 
d="M280 546q91 0 139.5 -36.5t48.5 -105.5q0 -47 -22.5 -78t-65.5 -43v-1q50 -6 80.5 -40t30.5 -84q0 -76 -56.5 -117t-163.5 -41h-191v546h200zM190 325h77q45 0 68.5 16.5t23.5 48.5t-23 48t-66 16h-80v-129zM190 92h82q52 0 80 19t28 54q0 32 -28.5 50t-78.5 18h-83v-141
z" />
    <glyph glyph-name="C.small" unicode="&#xe00e;" horiz-adv-x="517" 
d="M160 273q0 -86 42 -133.5t115 -47.5q39 0 78 11.5t72 33.5v-104q-31 -19 -75.5 -30t-89.5 -11q-114 0 -183 78.5t-69 202.5q0 125 71.5 203t190.5 78q45 0 84 -9.5t67 -26.5v-106q-33 22 -67.5 32.5t-73.5 10.5q-76 0 -119 -48t-43 -134z" />
    <glyph glyph-name="Cacute.small" unicode="&#xe00f;" horiz-adv-x="529" 
d="M479 822l-203 -176l-58 60l164 197zM160 273q0 -86 42 -133.5t115 -47.5q39 0 78 11.5t72 33.5v-104q-31 -19 -75.5 -30t-89.5 -11q-114 0 -183 78.5t-69 202.5q0 125 71.5 203t190.5 78q45 0 84 -9.5t67 -26.5v-106q-33 22 -67.5 32.5t-73.5 10.5q-76 0 -119 -48
t-43 -134z" />
    <glyph glyph-name="Ccaron.small" unicode="&#xe010;" horiz-adv-x="517" 
d="M291 748l101 119l62 -51l-121 -175h-85l-121 175l62 51zM160 273q0 -86 42 -133.5t115 -47.5q39 0 78 11.5t72 33.5v-104q-31 -19 -75.5 -30t-89.5 -11q-114 0 -183 78.5t-69 202.5q0 125 71.5 203t190.5 78q45 0 84 -9.5t67 -26.5v-106q-33 22 -67.5 32.5t-73.5 10.5
q-76 0 -119 -48t-43 -134z" />
    <glyph glyph-name="Ccedilla.small" unicode="&#xe011;" horiz-adv-x="517" 
d="M373 -66q0 -59 -37 -91t-98 -32q-18 0 -34 2t-30 6v92q13 -4 25 -6t24 -2q22 0 35.5 11t13.5 30q0 16 -7.5 30.5t-17.5 22.5q-90 18 -143.5 92.5t-53.5 183.5q0 125 71.5 203t190.5 78q45 0 84 -9.5t67 -26.5v-106q-33 22 -67.5 32.5t-73.5 10.5q-76 0 -119 -48t-43 -134
t42 -133.5t115 -47.5q39 0 78 11.5t72 33.5v-104q-22 -14 -52.5 -23.5t-62.5 -14.5q10 -14 15.5 -29.5t5.5 -31.5z" />
    <glyph glyph-name="Ccircumflex.small" unicode="&#xe012;" horiz-adv-x="517" 
d="M300 756l-101 -119l-62 51l121 175h85l121 -175l-62 -51zM160 273q0 -86 42 -133.5t115 -47.5q39 0 78 11.5t72 33.5v-104q-31 -19 -75.5 -30t-89.5 -11q-114 0 -183 78.5t-69 202.5q0 125 71.5 203t190.5 78q45 0 84 -9.5t67 -26.5v-106q-33 22 -67.5 32.5t-73.5 10.5
q-76 0 -119 -48t-43 -134z" />
    <glyph glyph-name="Cdotaccent.small" unicode="&#xe013;" horiz-adv-x="517" 
d="M376 751q0 -33 -22.5 -55.5t-55.5 -22.5t-55.5 22.5t-22.5 55.5t22.5 55.5t55.5 22.5t55.5 -22.5t22.5 -55.5zM160 273q0 -86 42 -133.5t115 -47.5q39 0 78 11.5t72 33.5v-104q-31 -19 -75.5 -30t-89.5 -11q-114 0 -183 78.5t-69 202.5q0 125 71.5 203t190.5 78
q45 0 84 -9.5t67 -26.5v-106q-33 22 -67.5 32.5t-73.5 10.5q-76 0 -119 -48t-43 -134z" />
    <glyph glyph-name="D.small" unicode="&#xe014;" horiz-adv-x="594" 
d="M544 273q0 -122 -74 -197.5t-197 -75.5h-193v546h186q128 0 203 -74.5t75 -198.5zM264 450h-74v-354h83q74 0 117.5 48.5t43.5 128.5q0 81 -45 129t-125 48z" />
    <glyph glyph-name="Dcaron.small" unicode="&#xe015;" horiz-adv-x="594" 
d="M258 748l101 119l62 -51l-121 -175h-85l-121 175l62 51zM544 273q0 -122 -74 -197.5t-197 -75.5h-193v546h186q128 0 203 -74.5t75 -198.5zM264 450h-74v-354h83q74 0 117.5 48.5t43.5 128.5q0 81 -45 129t-125 48z" />
    <glyph glyph-name="Dcroat.small" unicode="&#xe016;" horiz-adv-x="594" 
d="M544 273q0 -122 -74 -197.5t-197 -75.5h-193v225h-52v96h52v225h186q128 0 203 -74.5t75 -198.5zM190 96h83q74 0 117.5 48.5t43.5 128.5q0 81 -45 129t-125 48h-74v-129h114v-96h-114v-129z" />
    <glyph glyph-name="E.small" unicode="&#xe017;" horiz-adv-x="475" 
d="M415 93v-93h-335v546h326v-93h-216v-127h203v-93h-203v-140h225z" />
    <glyph glyph-name="Eacute.small" unicode="&#xe018;" horiz-adv-x="475" 
d="M409 822l-203 -176l-58 60l164 197zM415 93v-93h-335v546h326v-93h-216v-127h203v-93h-203v-140h225z" />
    <glyph glyph-name="Ebreve.small" unicode="&#xe019;" horiz-adv-x="475" 
d="M405 832q0 -81 -43 -131t-117 -50t-117 50t-43 131h83q2 -43 22 -67t55 -24t55 24t22 67h83zM415 93v-93h-335v546h326v-93h-216v-127h203v-93h-203v-140h225z" />
    <glyph glyph-name="Ecaron.small" unicode="&#xe01a;" horiz-adv-x="475" 
d="M246 748l101 119l62 -51l-121 -175h-85l-121 175l62 51zM415 93v-93h-335v546h326v-93h-216v-127h203v-93h-203v-140h225z" />
    <glyph glyph-name="Ecircumflex.small" unicode="&#xe01b;" horiz-adv-x="475" 
d="M245 756l-101 -119l-62 51l121 175h85l121 -175l-62 -51zM415 93v-93h-335v546h326v-93h-216v-127h203v-93h-203v-140h225z" />
    <glyph glyph-name="Edieresis.small" unicode="&#xe01c;" horiz-adv-x="475" 
d="M355 852q33 0 55.5 -22.5t22.5 -55.5t-22.5 -55.5t-55.5 -22.5t-55.5 22.5t-22.5 55.5t22.5 55.5t55.5 22.5zM135 852q33 0 55.5 -22.5t22.5 -55.5t-22.5 -55.5t-55.5 -22.5t-55.5 22.5t-22.5 55.5t22.5 55.5t55.5 22.5zM415 93v-93h-335v546h326v-93h-216v-127h203v-93
h-203v-140h225z" />
    <glyph glyph-name="Edotaccent.small" unicode="&#xe01d;" horiz-adv-x="475" 
d="M323 751q0 -33 -22.5 -55.5t-55.5 -22.5t-55.5 22.5t-22.5 55.5t22.5 55.5t55.5 22.5t55.5 -22.5t22.5 -55.5zM415 93v-93h-335v546h326v-93h-216v-127h203v-93h-203v-140h225z" />
    <glyph glyph-name="Egrave.small" unicode="&#xe01e;" horiz-adv-x="475" 
d="M160 901l160 -194l-58 -60l-203 176zM415 93v-93h-335v546h326v-93h-216v-127h203v-93h-203v-140h225z" />
    <glyph glyph-name="Emacron.small" unicode="&#xe01f;" horiz-adv-x="475" 
d="M406 791v-92h-322v92h322zM415 93v-93h-335v546h326v-93h-216v-127h203v-93h-203v-140h225z" />
    <glyph glyph-name="Eng.small" unicode="&#xe020;" horiz-adv-x="622" 
d="M433 546h109v-497q0 -91 -18.5 -147t-58.5 -86q-36 -27 -84.5 -39.5t-110.5 -11.5v101q46 0 75.5 8t47.5 26q18 17 26.5 40t11.5 64l-197 276q-13 21 -24.5 42t-21.5 43h-3q2 -22 3 -44t1 -43v-278h-109v546h107l201 -279q11 -18 22.5 -39t23.5 -46h3q-2 25 -3 47t-1 40
v277z" />
    <glyph glyph-name="Eogonek.small" unicode="&#xe021;" horiz-adv-x="475" 
d="M414 -214q-16 -10 -39.5 -15.5t-46.5 -5.5q-46 0 -74 27.5t-28 72.5q0 37 18.5 70t58.5 65h-223v546h326v-93h-216v-127h203v-93h-203v-140h225v-93q-38 -22 -61 -53t-23 -60q0 -16 10.5 -25t28.5 -9q11 0 23 3.5t21 9.5v-80z" />
    <glyph glyph-name="Eth.small" unicode="&#xe022;" horiz-adv-x="594" 
d="M544 273q0 -122 -74 -197.5t-197 -75.5h-193v225h-52v96h52v225h186q128 0 203 -74.5t75 -198.5zM190 96h83q74 0 117.5 48.5t43.5 128.5q0 81 -45 129t-125 48h-74v-129h114v-96h-114v-129z" />
    <glyph glyph-name="Euro.LP" unicode="&#xe023;" horiz-adv-x="679" 
d="M629 45q-39 -25 -95 -40.5t-111 -15.5q-113 0 -193 68t-112 182h-78v101h61q0 10 -0.5 20.5t-0.5 20.5q0 12 0.5 24t1.5 24h-62v101h81q33 111 115 177.5t196 66.5q54 0 107 -14t85 -38v-117q-42 29 -89 44.5t-92 15.5q-69 0 -119.5 -35.5t-76.5 -99.5h297v-101h-321
q-1 -11 -1.5 -23t-0.5 -24q0 -11 0.5 -21.5t1.5 -20.5h321v-101h-300q25 -66 75 -103t118 -37q47 0 99.5 17t92.5 46v-117z" />
    <glyph glyph-name="Euro.LT" unicode="&#xe024;" horiz-adv-x="661" 
d="M625 45q-39 -25 -95 -40.5t-111 -15.5q-113 0 -193 68t-112 182h-78v101h61q0 10 -0.5 20.5t-0.5 20.5q0 12 0.5 24t1.5 24h-62v101h81q33 111 115 177.5t196 66.5q54 0 107 -14t85 -38v-117q-42 29 -89 44.5t-92 15.5q-69 0 -119.5 -35.5t-76.5 -99.5h297v-101h-321
q-1 -11 -1.5 -23t-0.5 -24q0 -11 0.5 -21.5t1.5 -20.5h321v-101h-300q25 -66 75 -103t118 -37q47 0 99.5 17t92.5 46v-117z" />
    <glyph glyph-name="Euro.OP" unicode="&#xe025;" horiz-adv-x="579" 
d="M535 33q-31 -19 -75.5 -30t-89.5 -11q-81 0 -140.5 41t-88.5 111h-91v101h69q-1 7 -1 14v14v9.5v8.5h-68v101h88q28 75 91 118.5t151 43.5q45 0 84 -9.5t67 -26.5v-106q-33 22 -67.5 32.5t-73.5 10.5q-44 0 -77 -16.5t-54 -46.5h187v-101h-217q-1 -4 -1 -8.5v-9.5
q0 -7 0.5 -14t0.5 -14h217v-101h-180q20 -25 50.5 -38.5t68.5 -13.5q39 0 78 11.5t72 33.5v-104z" />
    <glyph glyph-name="Euro.OT" unicode="&#xe026;" horiz-adv-x="660" 
d="M573 33q-31 -19 -75.5 -30t-89.5 -11q-81 0 -140.5 41t-88.5 111h-91v101h69q-1 7 -1 14v14v9.5v8.5h-68v101h88q28 75 91 118.5t151 43.5q45 0 84 -9.5t67 -26.5v-106q-33 22 -67.5 32.5t-73.5 10.5q-44 0 -77 -16.5t-54 -46.5h187v-101h-217q-1 -4 -1 -8.5v-9.5
q0 -7 0.5 -14t0.5 -14h217v-101h-180q20 -25 50.5 -38.5t68.5 -13.5q39 0 78 11.5t72 33.5v-104z" />
    <glyph glyph-name="F.small" unicode="&#xe027;" horiz-adv-x="457" 
d="M80 546h327v-93h-217v-127h203v-93h-203v-233h-110v546z" />
    <glyph glyph-name="G.small" unicode="&#xe028;" horiz-adv-x="593" 
d="M296 292h217v-259q-51 -21 -98 -31t-94 -10q-125 0 -198 74.5t-73 206.5t75.5 206.5t204.5 74.5q44 0 86.5 -8.5t86.5 -25.5v-106q-43 22 -85.5 33t-85.5 11q-82 0 -127 -48t-45 -137q0 -92 44 -140t126 -48q19 0 38.5 2.5t34.5 7.5v104h-107v93z" />
    <glyph glyph-name="Gbreve.small" unicode="&#xe029;" horiz-adv-x="593" 
d="M455 832q0 -81 -43 -131t-117 -50t-117 50t-43 131h83q2 -43 22 -67t55 -24t55 24t22 67h83zM296 292h217v-259q-51 -21 -98 -31t-94 -10q-125 0 -198 74.5t-73 206.5t75.5 206.5t204.5 74.5q44 0 86.5 -8.5t86.5 -25.5v-106q-43 22 -85.5 33t-85.5 11q-82 0 -127 -48
t-45 -137q0 -92 44 -140t126 -48q19 0 38.5 2.5t34.5 7.5v104h-107v93z" />
    <glyph glyph-name="Gcircumflex.small" unicode="&#xe02a;" horiz-adv-x="593" 
d="M312 756l-101 -119l-62 51l121 175h85l121 -175l-62 -51zM296 292h217v-259q-51 -21 -98 -31t-94 -10q-125 0 -198 74.5t-73 206.5t75.5 206.5t204.5 74.5q44 0 86.5 -8.5t86.5 -25.5v-106q-43 22 -85.5 33t-85.5 11q-82 0 -127 -48t-45 -137q0 -92 44 -140t126 -48
q19 0 38.5 2.5t34.5 7.5v104h-107v93z" />
    <glyph glyph-name="Gcommaaccent.small" unicode="&#xe02b;" horiz-adv-x="593" 
d="M296 292h217v-259q-51 -21 -98 -31t-94 -10q-125 0 -198 74.5t-73 206.5t75.5 206.5t204.5 74.5q44 0 86.5 -8.5t86.5 -25.5v-106q-43 22 -85.5 33t-85.5 11q-82 0 -127 -48t-45 -137q0 -92 44 -140t126 -48q19 0 38.5 2.5t34.5 7.5v104h-107v93zM406 -134l-154 -117
l-58 60l115 138z" />
    <glyph glyph-name="Gdotaccent.small" unicode="&#xe02c;" horiz-adv-x="593" 
d="M387 751q0 -33 -22.5 -55.5t-55.5 -22.5t-55.5 22.5t-22.5 55.5t22.5 55.5t55.5 22.5t55.5 -22.5t22.5 -55.5zM296 292h217v-259q-51 -21 -98 -31t-94 -10q-125 0 -198 74.5t-73 206.5t75.5 206.5t204.5 74.5q44 0 86.5 -8.5t86.5 -25.5v-106q-43 22 -85.5 33t-85.5 11
q-82 0 -127 -48t-45 -137q0 -92 44 -140t126 -48q19 0 38.5 2.5t34.5 7.5v104h-107v93z" />
    <glyph glyph-name="H.small" unicode="&#xe02d;" horiz-adv-x="622" 
d="M190 231v-231h-110v546h110v-219h241v219h111v-546h-111v231h-241z" />
    <glyph glyph-name="Hbar.small" unicode="&#xe02e;" horiz-adv-x="622" 
d="M190 231v-231h-110v375h-52v96h52v75h110v-75h241v75h111v-75h48v-96h-48v-375h-111v231h-241zM190 327h241v48h-241v-48z" />
    <glyph glyph-name="Hcircumflex.small" unicode="&#xe02f;" horiz-adv-x="622" 
d="M309 756l-101 -119l-62 51l121 175h85l121 -175l-62 -51zM190 231v-231h-110v546h110v-219h241v219h111v-546h-111v231h-241z" />
    <glyph glyph-name="I.small" unicode="&#xe030;" horiz-adv-x="410" 
d="M350 93v-93h-290v93h90v360h-90v93h290v-93h-90v-360h90z" />
    <glyph glyph-name="IJ.small" unicode="&#xe031;" horiz-adv-x="856" 
d="M776 209q0 -122 -42.5 -169.5t-146.5 -47.5q-30 0 -67.5 6t-49.5 13v105q20 -11 49.5 -17t59.5 -6q49 0 67.5 25t18.5 119v216h-179v93h290v-337zM350 93v-93h-290v93h90v360h-90v93h290v-93h-90v-360h90z" />
    <glyph glyph-name="Iacute.small" unicode="&#xe032;" horiz-adv-x="410" 
d="M387 822l-203 -176l-58 60l164 197zM350 93v-93h-290v93h90v360h-90v93h290v-93h-90v-360h90z" />
    <glyph glyph-name="Ibreve.small" unicode="&#xe033;" horiz-adv-x="410" 
d="M365 832q0 -81 -43 -131t-117 -50t-117 50t-43 131h83q2 -43 22 -67t55 -24t55 24t22 67h83zM350 93v-93h-290v93h90v360h-90v93h290v-93h-90v-360h90z" />
    <glyph glyph-name="Icircumflex.small" unicode="&#xe034;" horiz-adv-x="410" 
d="M205 756l-101 -119l-62 51l121 175h85l121 -175l-62 -51zM350 93v-93h-290v93h90v360h-90v93h290v-93h-90v-360h90z" />
    <glyph glyph-name="Idieresis.small" unicode="&#xe035;" horiz-adv-x="410" 
d="M315 852q33 0 55.5 -22.5t22.5 -55.5t-22.5 -55.5t-55.5 -22.5t-55.5 22.5t-22.5 55.5t22.5 55.5t55.5 22.5zM95 852q33 0 55.5 -22.5t22.5 -55.5t-22.5 -55.5t-55.5 -22.5t-55.5 22.5t-22.5 55.5t22.5 55.5t55.5 22.5zM350 93v-93h-290v93h90v360h-90v93h290v-93h-90
v-360h90z" />
    <glyph glyph-name="Idotaccent.small" unicode="&#xe036;" horiz-adv-x="410" 
d="M283 751q0 -33 -22.5 -55.5t-55.5 -22.5t-55.5 22.5t-22.5 55.5t22.5 55.5t55.5 22.5t55.5 -22.5t22.5 -55.5zM350 93v-93h-290v93h90v360h-90v93h290v-93h-90v-360h90z" />
    <glyph glyph-name="Igrave.small" unicode="&#xe037;" horiz-adv-x="410" 
d="M115 901l160 -194l-58 -60l-203 176zM350 93v-93h-290v93h90v360h-90v93h290v-93h-90v-360h90z" />
    <glyph glyph-name="Imacron.small" unicode="&#xe038;" horiz-adv-x="410" 
d="M366 791v-92h-322v92h322zM350 93v-93h-290v93h90v360h-90v93h290v-93h-90v-360h90z" />
    <glyph glyph-name="Iogonek.small" unicode="&#xe039;" horiz-adv-x="410" 
d="M349 -214q-16 -10 -39.5 -15.5t-46.5 -5.5q-46 0 -74 27.5t-28 72.5q0 37 18.5 70t58.5 65h-178v93h90v360h-90v93h290v-93h-90v-360h90v-93q-38 -22 -61 -53t-23 -60q0 -16 10.5 -25t28.5 -9q11 0 23 3.5t21 9.5v-80z" />
    <glyph glyph-name="Itilde.small" unicode="&#xe03a;" horiz-adv-x="410" 
d="M370 839q1 -87 -26 -133t-75 -43q-20 2 -38.5 12t-43.5 37q-15 16 -21.5 21t-12.5 5q-14 1 -21.5 -17.5t-7.5 -55.5h-82q-1 85 26 131t75 43q22 -2 40.5 -12t43.5 -38q14 -15 20 -19.5t12 -4.5q14 -1 21.5 18t7.5 56h82zM351 93v-93h-290v93h90v360h-90v93h290v-93h-90
v-360h90z" />
    <glyph glyph-name="J.small" unicode="&#xe03b;" horiz-adv-x="441" 
d="M361 209q0 -122 -42.5 -169.5t-146.5 -47.5q-30 0 -67.5 6t-49.5 13v105q20 -11 49.5 -17t59.5 -6q49 0 67.5 25t18.5 119v216h-179v93h290v-337z" />
    <glyph glyph-name="Jcircumflex.small" unicode="&#xe03c;" horiz-adv-x="441" 
d="M215 756l-101 -119l-62 51l121 175h85l121 -175l-62 -51zM361 209q0 -122 -42.5 -169.5t-146.5 -47.5q-30 0 -67.5 6t-49.5 13v105q20 -11 49.5 -17t59.5 -6q49 0 67.5 25t18.5 119v216h-179v93h290v-337z" />
    <glyph glyph-name="K.small" unicode="&#xe03d;" horiz-adv-x="533" 
d="M190 230v-230h-110v546h110v-218q30 0 47.5 17.5t58.5 76.5q10 14 23.5 34.5t60.5 89.5h131l-167 -216q-12 -16 -23.5 -27.5t-24.5 -18.5q-1 -1 -2 -1.5l-1 -0.5v-2l0.5 -0.5t2.5 -1.5q13 -8 25 -20t24 -29l173 -229h-131q-36 52 -58.5 84t-30.5 44q-47 65 -65 83.5
t-43 18.5z" />
    <glyph glyph-name="Kcommaaccent.small" unicode="&#xe03e;" horiz-adv-x="533" 
d="M190 230v-230h-110v546h110v-218q30 0 47.5 17.5t58.5 76.5q10 14 23.5 34.5t60.5 89.5h131l-167 -216q-12 -16 -23.5 -27.5t-24.5 -18.5q-1 -1 -2 -1.5l-1 -0.5v-2l0.5 -0.5t2.5 -1.5q13 -8 25 -20t24 -29l173 -229h-131q-36 52 -58.5 84t-30.5 44q-47 65 -65 83.5
t-43 18.5zM374 -134l-154 -117l-58 60l115 138z" />
    <glyph glyph-name="L.small" unicode="&#xe03f;" horiz-adv-x="455" 
d="M415 96v-96h-335v546h110v-450h225z" />
    <glyph glyph-name="Lacute.small" unicode="&#xe040;" horiz-adv-x="455" 
d="M333 822l-203 -176l-58 60l164 197zM415 96v-96h-335v546h110v-450h225z" />
    <glyph glyph-name="Lcaron.small" unicode="&#xe041;" horiz-adv-x="455" 
d="M415 96v-96h-335v546h110v-450h225zM425 507l-94 -252l-80 25l51 252z" />
    <glyph glyph-name="Lcommaaccent.small" unicode="&#xe042;" horiz-adv-x="455" 
d="M415 96v-96h-335v546h110v-450h225zM355 -134l-154 -117l-58 60l115 138z" />
    <glyph glyph-name="Ldot.small" unicode="&#xe043;" horiz-adv-x="455" 
d="M415 96v-96h-335v546h110v-450h225zM415 352q0 -33 -22.5 -55.5t-55.5 -22.5t-55.5 22.5t-22.5 55.5t22.5 55.5t55.5 22.5t55.5 -22.5t22.5 -55.5z" />
    <glyph glyph-name="Lslash.small" unicode="&#xe044;" horiz-adv-x="455" 
d="M415 96v-96h-335v144l-50 -36v115l50 36v287h110v-209l144 103v-115l-144 -103v-126h225z" />
    <glyph glyph-name="M.small" unicode="&#xe045;" horiz-adv-x="754" 
d="M186 257l-7 -257h-109l31 546h114l129 -332q10 -25 18 -48.5t14 -45.5h2q10 31 17 52t15 42l129 332h114l31 -546h-108l-8 257q0 30 1 58.5t3 56.5h-3q-6 -28 -14.5 -57t-19.5 -59l-103 -256h-109l-104 256q-11 30 -19.5 59t-14.5 57h-3q3 -28 4 -56.5t0 -58.5z" />
    <glyph glyph-name="N.small" unicode="&#xe046;" horiz-adv-x="622" 
d="M189 278v-278h-109v546h107l201 -279q11 -18 22.5 -39t23.5 -46h3q-2 25 -3 47t-1 40v277h109v-546h-108l-200 280q-13 21 -24.5 42t-21.5 43h-3q2 -22 3 -44t1 -43z" />
    <glyph glyph-name="Nacute.small" unicode="&#xe047;" horiz-adv-x="622" 
d="M501 822l-203 -176l-58 60l164 197zM189 278v-278h-109v546h107l201 -279q11 -18 22.5 -39t23.5 -46h3q-2 25 -3 47t-1 40v277h109v-546h-108l-200 280q-13 21 -24.5 42t-21.5 43h-3q2 -22 3 -44t1 -43z" />
    <glyph glyph-name="Ncaron.small" unicode="&#xe048;" horiz-adv-x="622" 
d="M312 748l101 119l62 -51l-121 -175h-85l-121 175l62 51zM189 278v-278h-109v546h107l201 -279q11 -18 22.5 -39t23.5 -46h3q-2 25 -3 47t-1 40v277h109v-546h-108l-200 280q-13 21 -24.5 42t-21.5 43h-3q2 -22 3 -44t1 -43z" />
    <glyph glyph-name="Ncommaaccent.small" unicode="&#xe049;" horiz-adv-x="622" 
d="M189 278v-278h-109v546h107l201 -279q11 -18 22.5 -39t23.5 -46h3q-2 25 -3 47t-1 40v277h109v-546h-108l-200 280q-13 21 -24.5 42t-21.5 43h-3q2 -22 3 -44t1 -43zM410 -134l-154 -117l-58 60l115 138z" />
    <glyph glyph-name="Ntilde.small" unicode="&#xe04a;" horiz-adv-x="622" 
d="M475 839q1 -87 -26 -133t-75 -43q-20 2 -38.5 12t-43.5 37q-15 16 -21.5 21t-12.5 5q-14 1 -21.5 -17.5t-7.5 -55.5h-82q-1 85 26 131t75 43q22 -2 40.5 -12t43.5 -38q14 -15 20 -19.5t12 -4.5q14 -1 21.5 18t7.5 56h82zM189 278v-278h-109v546h107l201 -279
q11 -18 22.5 -39t23.5 -46h3q-2 25 -3 47t-1 40v277h109v-546h-108l-200 280q-13 21 -24.5 42t-21.5 43h-3q2 -22 3 -44t1 -43z" />
    <glyph glyph-name="O.small" unicode="&#xe04b;" horiz-adv-x="640" 
d="M590 273q0 -126 -73.5 -203.5t-196.5 -77.5q-124 0 -197 77t-73 204q0 126 73.5 203.5t196.5 77.5t196.5 -77.5t73.5 -203.5zM480 273q0 84 -43 134.5t-117 50.5t-117 -50.5t-43 -134.5t43 -134.5t117 -50.5t117 50.5t43 134.5z" />
    <glyph glyph-name="OE.small" unicode="&#xe04c;" horiz-adv-x="875" 
d="M480 0v38q-32 -22 -72.5 -34t-87.5 -12q-124 0 -197 77t-73 204q0 126 73.5 203.5t196.5 77.5q47 0 87.5 -12t72.5 -34v38h326v-93h-216v-127h203v-93h-203v-140h225v-93h-335zM480 273q0 84 -43 134.5t-117 50.5t-117 -50.5t-43 -134.5t43 -134.5t117 -50.5t117 50.5
t43 134.5z" />
    <glyph glyph-name="Oacute.small" unicode="&#xe04d;" horiz-adv-x="640" 
d="M520 822l-203 -176l-58 60l164 197zM590 273q0 -126 -73.5 -203.5t-196.5 -77.5q-124 0 -197 77t-73 204q0 126 73.5 203.5t196.5 77.5t196.5 -77.5t73.5 -203.5zM480 273q0 84 -43 134.5t-117 50.5t-117 -50.5t-43 -134.5t43 -134.5t117 -50.5t117 50.5t43 134.5z" />
    <glyph glyph-name="Obreve.small" unicode="&#xe04e;" horiz-adv-x="640" 
d="M480 832q0 -81 -43 -131t-117 -50t-117 50t-43 131h83q2 -43 22 -67t55 -24t55 24t22 67h83zM590 273q0 -126 -73.5 -203.5t-196.5 -77.5q-124 0 -197 77t-73 204q0 126 73.5 203.5t196.5 77.5t196.5 -77.5t73.5 -203.5zM480 273q0 84 -43 134.5t-117 50.5t-117 -50.5
t-43 -134.5t43 -134.5t117 -50.5t117 50.5t43 134.5z" />
    <glyph glyph-name="Ocircumflex.small" unicode="&#xe04f;" horiz-adv-x="640" 
d="M320 756l-101 -119l-62 51l121 175h85l121 -175l-62 -51zM590 273q0 -126 -73.5 -203.5t-196.5 -77.5q-124 0 -197 77t-73 204q0 126 73.5 203.5t196.5 77.5t196.5 -77.5t73.5 -203.5zM480 273q0 84 -43 134.5t-117 50.5t-117 -50.5t-43 -134.5t43 -134.5t117 -50.5
t117 50.5t43 134.5z" />
    <glyph glyph-name="Odieresis.small" unicode="&#xe050;" horiz-adv-x="640" 
d="M430 852q33 0 55.5 -22.5t22.5 -55.5t-22.5 -55.5t-55.5 -22.5t-55.5 22.5t-22.5 55.5t22.5 55.5t55.5 22.5zM210 852q33 0 55.5 -22.5t22.5 -55.5t-22.5 -55.5t-55.5 -22.5t-55.5 22.5t-22.5 55.5t22.5 55.5t55.5 22.5zM590 273q0 -126 -73.5 -203.5t-196.5 -77.5
q-124 0 -197 77t-73 204q0 126 73.5 203.5t196.5 77.5t196.5 -77.5t73.5 -203.5zM480 273q0 84 -43 134.5t-117 50.5t-117 -50.5t-43 -134.5t43 -134.5t117 -50.5t117 50.5t43 134.5z" />
    <glyph glyph-name="Ograve.small" unicode="&#xe051;" horiz-adv-x="640" 
d="M232 901l160 -194l-58 -60l-203 176zM590 273q0 -126 -73.5 -203.5t-196.5 -77.5q-124 0 -197 77t-73 204q0 126 73.5 203.5t196.5 77.5t196.5 -77.5t73.5 -203.5zM480 273q0 84 -43 134.5t-117 50.5t-117 -50.5t-43 -134.5t43 -134.5t117 -50.5t117 50.5t43 134.5z" />
    <glyph glyph-name="Ohungarumlaut.small" unicode="&#xe052;" horiz-adv-x="640" 
d="M383 847l-165 -212l-69 48l123 225zM598 812l-196 -184l-60 57l156 204zM590 273q0 -126 -73.5 -203.5t-196.5 -77.5q-124 0 -197 77t-73 204q0 126 73.5 203.5t196.5 77.5t196.5 -77.5t73.5 -203.5zM480 273q0 84 -43 134.5t-117 50.5t-117 -50.5t-43 -134.5t43 -134.5
t117 -50.5t117 50.5t43 134.5z" />
    <glyph glyph-name="Omacron.small" unicode="&#xe053;" horiz-adv-x="640" 
d="M481 791v-92h-322v92h322zM590 273q0 -126 -73.5 -203.5t-196.5 -77.5q-124 0 -197 77t-73 204q0 126 73.5 203.5t196.5 77.5t196.5 -77.5t73.5 -203.5zM480 273q0 84 -43 134.5t-117 50.5t-117 -50.5t-43 -134.5t43 -134.5t117 -50.5t117 50.5t43 134.5z" />
    <glyph glyph-name="Oslash.small" unicode="&#xe054;" horiz-adv-x="640" 
d="M320 -8q-39 0 -73.5 8t-62.5 23l-34 -43l-73 55l35 45q-30 36 -46 85t-16 108q0 126 73.5 203.5t196.5 77.5q39 0 73.5 -8t63.5 -24l33 43l73 -55l-35 -45q30 -36 46 -85t16 -107q0 -126 -73.5 -203.5t-196.5 -77.5zM160 273q0 -30 5.5 -56t16.5 -47l212 272
q-16 8 -34.5 12t-39.5 4q-74 0 -117 -50.5t-43 -134.5zM480 273q0 30 -5.5 56t-16.5 47l-211 -272q15 -8 33.5 -12t39.5 -4q74 0 117 50.5t43 134.5z" />
    <glyph glyph-name="Oslashacute.small" unicode="&#xe055;" horiz-adv-x="640" 
d="M515 822l-203 -176l-58 60l164 197zM320 -8q-39 0 -73.5 8t-62.5 23l-34 -43l-73 55l35 45q-30 36 -46 85t-16 108q0 126 73.5 203.5t196.5 77.5q39 0 73.5 -8t63.5 -24l33 43l73 -55l-35 -45q30 -36 46 -85t16 -107q0 -126 -73.5 -203.5t-196.5 -77.5zM160 273
q0 -30 5.5 -56t16.5 -47l212 272q-16 8 -34.5 12t-39.5 4q-74 0 -117 -50.5t-43 -134.5zM480 273q0 30 -5.5 56t-16.5 47l-211 -272q15 -8 33.5 -12t39.5 -4q74 0 117 50.5t43 134.5z" />
    <glyph glyph-name="Otilde.small" unicode="&#xe056;" horiz-adv-x="640" 
d="M484 839q1 -87 -26 -133t-75 -43q-20 2 -38.5 12t-43.5 37q-15 16 -21.5 21t-12.5 5q-14 1 -21.5 -17.5t-7.5 -55.5h-82q-1 85 26 131t75 43q22 -2 40.5 -12t43.5 -38q14 -15 20 -19.5t12 -4.5q14 -1 21.5 18t7.5 56h82zM590 273q0 -126 -73.5 -203.5t-196.5 -77.5
q-124 0 -197 77t-73 204q0 126 73.5 203.5t196.5 77.5t196.5 -77.5t73.5 -203.5zM480 273q0 84 -43 134.5t-117 50.5t-117 -50.5t-43 -134.5t43 -134.5t117 -50.5t117 50.5t43 134.5z" />
    <glyph glyph-name="P.small" unicode="&#xe057;" horiz-adv-x="509" 
d="M190 171v-171h-110v546h163q112 0 169 -46.5t57 -138.5q0 -91 -61.5 -140.5t-172.5 -49.5h-45zM243 451h-53v-185h45q62 0 92.5 23.5t30.5 70.5q0 45 -29.5 68t-85.5 23z" />
    <glyph glyph-name="Q.small" unicode="&#xe058;" horiz-adv-x="640" 
d="M610 40l-72 -66l-60 63q-32 -22 -72 -33.5t-86 -11.5q-124 0 -197 77t-73 204q0 126 73.5 203.5t196.5 77.5t196.5 -77.5t73.5 -203.5q0 -51 -12.5 -95t-36.5 -79zM160 273q0 -84 43 -134.5t117 -50.5q23 0 43.5 5t37.5 15l-90 77l68 67l81 -78q10 20 15 45.5t5 53.5
q0 84 -43 134.5t-117 50.5t-117 -50.5t-43 -134.5z" />
    <glyph glyph-name="R.small" unicode="&#xe059;" horiz-adv-x="531" 
d="M190 198v-198h-110v546h163q112 0 169 -43t57 -127q0 -50 -25 -88.5t-71 -59.5l138 -228h-127l-113 200q-13 -1 -25 -1.5t-23 -0.5h-33zM243 451h-53v-159h44q61 0 92.5 20t31.5 60q0 39 -30 59t-85 20z" />
    <glyph glyph-name="Racute.small" unicode="&#xe05a;" horiz-adv-x="531" 
d="M443 822l-203 -176l-58 60l164 197zM190 198v-198h-110v546h163q112 0 169 -43t57 -127q0 -50 -25 -88.5t-71 -59.5l138 -228h-127l-113 200q-13 -1 -25 -1.5t-23 -0.5h-33zM243 451h-53v-159h44q61 0 92.5 20t31.5 60q0 39 -30 59t-85 20z" />
    <glyph glyph-name="Rcaron.small" unicode="&#xe05b;" horiz-adv-x="531" 
d="M250 748l101 119l62 -51l-121 -175h-85l-121 175l62 51zM190 198v-198h-110v546h163q112 0 169 -43t57 -127q0 -50 -25 -88.5t-71 -59.5l138 -228h-127l-113 200q-13 -1 -25 -1.5t-23 -0.5h-33zM243 451h-53v-159h44q61 0 92.5 20t31.5 60q0 39 -30 59t-85 20z" />
    <glyph glyph-name="Rcommaaccent.small" unicode="&#xe05c;" horiz-adv-x="531" 
d="M190 198v-198h-110v546h163q112 0 169 -43t57 -127q0 -50 -25 -88.5t-71 -59.5l138 -228h-127l-113 200q-13 -1 -25 -1.5t-23 -0.5h-33zM243 451h-53v-159h44q61 0 92.5 20t31.5 60q0 39 -30 59t-85 20zM374 -134l-154 -117l-58 60l115 138z" />
    <glyph glyph-name="S.small" unicode="&#xe05d;" horiz-adv-x="474" 
d="M419 157q0 -78 -56 -121.5t-158 -43.5q-40 0 -77 7t-73 21v104q31 -19 70.5 -29.5t82.5 -10.5q49 0 74 16t25 46q0 22 -18 40t-80 46q-92 42 -122 79.5t-30 89.5q0 71 52.5 112t143.5 41q39 0 74.5 -7.5t63.5 -21.5v-109q-24 20 -62 32t-75 12q-43 0 -64.5 -13t-21.5 -39
q0 -21 18 -38.5t80 -45.5q92 -41 122.5 -78.5t30.5 -88.5z" />
    <glyph glyph-name="Sacute.small" unicode="&#xe05e;" horiz-adv-x="474" 
d="M443 822l-203 -176l-58 60l164 197zM419 157q0 -78 -56 -121.5t-158 -43.5q-40 0 -77 7t-73 21v104q31 -19 70.5 -29.5t82.5 -10.5q49 0 74 16t25 46q0 22 -18 40t-80 46q-92 42 -122 79.5t-30 89.5q0 71 52.5 112t143.5 41q39 0 74.5 -7.5t63.5 -21.5v-109
q-24 20 -62 32t-75 12q-43 0 -64.5 -13t-21.5 -39q0 -21 18 -38.5t80 -45.5q92 -41 122.5 -78.5t30.5 -88.5z" />
    <glyph glyph-name="Scaron.small" unicode="&#xe05f;" horiz-adv-x="474" 
d="M245 748l101 119l62 -51l-121 -175h-85l-121 175l62 51zM419 157q0 -78 -56 -121.5t-158 -43.5q-40 0 -77 7t-73 21v104q31 -19 70.5 -29.5t82.5 -10.5q49 0 74 16t25 46q0 22 -18 40t-80 46q-92 42 -122 79.5t-30 89.5q0 71 52.5 112t143.5 41q39 0 74.5 -7.5
t63.5 -21.5v-109q-24 20 -62 32t-75 12q-43 0 -64.5 -13t-21.5 -39q0 -21 18 -38.5t80 -45.5q92 -41 122.5 -78.5t30.5 -88.5z" />
    <glyph glyph-name="Scedilla.small" unicode="&#xe060;" horiz-adv-x="474" 
d="M328 -66q0 -59 -37 -91t-98 -32q-18 0 -34 2t-30 6v92q13 -4 25 -6t24 -2q22 0 35.5 11t13.5 30q0 14 -5.5 26.5t-13.5 21.5h-3q-40 0 -77 7t-73 21v104q31 -19 70.5 -29.5t82.5 -10.5q49 0 74 16t25 46q0 22 -18 40t-80 46q-92 42 -122 79.5t-30 89.5q0 71 52.5 112
t143.5 41q39 0 74.5 -7.5t63.5 -21.5v-109q-24 20 -62 32t-75 12q-43 0 -64.5 -13t-21.5 -39q0 -21 18 -38.5t80 -45.5q92 -41 122.5 -78.5t30.5 -88.5q0 -57 -31 -96.5t-88 -56.5q13 -15 20.5 -33.5t7.5 -36.5z" />
    <glyph glyph-name="Schwa.small" unicode="&#xe062;" horiz-adv-x="559" 
d="M73 525q42 16 82 23.5t80 7.5q129 0 201.5 -73.5t72.5 -206.5q0 -131 -68 -209t-184 -78q-99 0 -153 59.5t-54 165.5q0 24 3 50t9 52h338q-10 71 -51 106t-115 35q-37 0 -77.5 -8.5t-83.5 -25.5v102zM152 193q-1 -52 29.5 -83.5t84.5 -31.5q59 0 94 39t40 111h-245
q-1 -8 -2 -17.5t-1 -17.5z" />
    <glyph glyph-name="Scircumflex.small" unicode="&#xe063;" horiz-adv-x="474" 
d="M239 756l-101 -119l-62 51l121 175h85l121 -175l-62 -51zM419 157q0 -78 -56 -121.5t-158 -43.5q-40 0 -77 7t-73 21v104q31 -19 70.5 -29.5t82.5 -10.5q49 0 74 16t25 46q0 22 -18 40t-80 46q-92 42 -122 79.5t-30 89.5q0 71 52.5 112t143.5 41q39 0 74.5 -7.5
t63.5 -21.5v-109q-24 20 -62 32t-75 12q-43 0 -64.5 -13t-21.5 -39q0 -21 18 -38.5t80 -45.5q92 -41 122.5 -78.5t30.5 -88.5z" />
    <glyph glyph-name="Scommaaccent.small" unicode="&#xe064;" horiz-adv-x="474" 
d="M419 157q0 -78 -56 -121.5t-158 -43.5q-40 0 -77 7t-73 21v104q31 -19 70.5 -29.5t82.5 -10.5q49 0 74 16t25 46q0 22 -18 40t-80 46q-92 42 -122 79.5t-30 89.5q0 71 52.5 112t143.5 41q39 0 74.5 -7.5t63.5 -21.5v-109q-24 20 -62 32t-75 12q-43 0 -64.5 -13t-21.5 -39
q0 -21 18 -38.5t80 -45.5q92 -41 122.5 -78.5t30.5 -88.5zM319 -134l-154 -117l-58 60l115 138z" />
    <glyph glyph-name="T.small" unicode="&#xe065;" horiz-adv-x="444" 
d="M277 450v-450h-110v450h-157v96h424v-96h-157z" />
    <glyph glyph-name="Tbar.small" unicode="&#xe066;" horiz-adv-x="444" 
d="M434 225h-157v-225h-110v225h-157v96h157v129h-157v96h424v-96h-157v-129h157v-96z" />
    <glyph glyph-name="Tcaron.small" unicode="&#xe067;" horiz-adv-x="444" 
d="M223 748l101 119l62 -51l-121 -175h-85l-121 175l62 51zM277 450v-450h-110v450h-157v96h424v-96h-157z" />
    <glyph glyph-name="Tcommaaccent.small" unicode="&#xe068;" horiz-adv-x="444" 
d="M277 450v-450h-110v450h-157v96h424v-96h-157zM313 -134l-154 -117l-58 60l115 138z" />
    <glyph glyph-name="Thorn.small" unicode="&#xe069;" horiz-adv-x="509" 
d="M190 86v-86h-110v546h110v-85h53q112 0 169 -46.5t57 -138.5q0 -91 -61.5 -140.5t-172.5 -49.5h-45zM243 366h-53v-185h45q62 0 92.5 23.5t30.5 70.5q0 45 -29.5 68t-85.5 23z" />
    <glyph glyph-name="U.small" unicode="&#xe06a;" horiz-adv-x="622" 
d="M311 -8q-72 0 -119 18.5t-73 57.5q-20 31 -29.5 79.5t-9.5 129.5v269h110v-278q0 -54 4 -79.5t12 -43.5q13 -27 39 -39.5t67 -12.5q40 0 65.5 12.5t38.5 39.5q8 17 11.5 42t3.5 81v278h111v-269q0 -164 -53 -224.5t-178 -60.5z" />
    <glyph glyph-name="Uacute.small" unicode="&#xe06b;" horiz-adv-x="622" 
d="M500 822l-203 -176l-58 60l164 197zM311 -8q-72 0 -119 18.5t-73 57.5q-20 31 -29.5 79.5t-9.5 129.5v269h110v-278q0 -54 4 -79.5t12 -43.5q13 -27 39 -39.5t67 -12.5q40 0 65.5 12.5t38.5 39.5q8 17 11.5 42t3.5 81v278h111v-269q0 -164 -53 -224.5t-178 -60.5z" />
    <glyph glyph-name="Ubreve.small" unicode="&#xe06c;" horiz-adv-x="622" 
d="M471 832q0 -81 -43 -131t-117 -50t-117 50t-43 131h83q2 -43 22 -67t55 -24t55 24t22 67h83zM311 -8q-72 0 -119 18.5t-73 57.5q-20 31 -29.5 79.5t-9.5 129.5v269h110v-278q0 -54 4 -79.5t12 -43.5q13 -27 39 -39.5t67 -12.5q40 0 65.5 12.5t38.5 39.5q8 17 11.5 42
t3.5 81v278h111v-269q0 -164 -53 -224.5t-178 -60.5z" />
    <glyph glyph-name="Ucircumflex.small" unicode="&#xe06d;" horiz-adv-x="622" 
d="M311 756l-101 -119l-62 51l121 175h85l121 -175l-62 -51zM311 -8q-72 0 -119 18.5t-73 57.5q-20 31 -29.5 79.5t-9.5 129.5v269h110v-278q0 -54 4 -79.5t12 -43.5q13 -27 39 -39.5t67 -12.5q40 0 65.5 12.5t38.5 39.5q8 17 11.5 42t3.5 81v278h111v-269
q0 -164 -53 -224.5t-178 -60.5z" />
    <glyph glyph-name="Udieresis.small" unicode="&#xe06e;" horiz-adv-x="622" 
d="M421 852q33 0 55.5 -22.5t22.5 -55.5t-22.5 -55.5t-55.5 -22.5t-55.5 22.5t-22.5 55.5t22.5 55.5t55.5 22.5zM201 852q33 0 55.5 -22.5t22.5 -55.5t-22.5 -55.5t-55.5 -22.5t-55.5 22.5t-22.5 55.5t22.5 55.5t55.5 22.5zM311 -8q-72 0 -119 18.5t-73 57.5
q-20 31 -29.5 79.5t-9.5 129.5v269h110v-278q0 -54 4 -79.5t12 -43.5q13 -27 39 -39.5t67 -12.5q40 0 65.5 12.5t38.5 39.5q8 17 11.5 42t3.5 81v278h111v-269q0 -164 -53 -224.5t-178 -60.5z" />
    <glyph glyph-name="Ugrave.small" unicode="&#xe06f;" horiz-adv-x="622" 
d="M211 901l160 -194l-58 -60l-203 176zM311 -8q-72 0 -119 18.5t-73 57.5q-20 31 -29.5 79.5t-9.5 129.5v269h110v-278q0 -54 4 -79.5t12 -43.5q13 -27 39 -39.5t67 -12.5q40 0 65.5 12.5t38.5 39.5q8 17 11.5 42t3.5 81v278h111v-269q0 -164 -53 -224.5t-178 -60.5z" />
    <glyph glyph-name="Uhungarumlaut.small" unicode="&#xe070;" horiz-adv-x="622" 
d="M379 847l-165 -212l-69 48l123 225zM594 812l-196 -184l-60 57l156 204zM311 -8q-72 0 -119 18.5t-73 57.5q-20 31 -29.5 79.5t-9.5 129.5v269h110v-278q0 -54 4 -79.5t12 -43.5q13 -27 39 -39.5t67 -12.5q40 0 65.5 12.5t38.5 39.5q8 17 11.5 42t3.5 81v278h111v-269
q0 -164 -53 -224.5t-178 -60.5z" />
    <glyph glyph-name="Umacron.small" unicode="&#xe071;" horiz-adv-x="622" 
d="M472 791v-92h-322v92h322zM311 -8q-72 0 -119 18.5t-73 57.5q-20 31 -29.5 79.5t-9.5 129.5v269h110v-278q0 -54 4 -79.5t12 -43.5q13 -27 39 -39.5t67 -12.5q40 0 65.5 12.5t38.5 39.5q8 17 11.5 42t3.5 81v278h111v-269q0 -164 -53 -224.5t-178 -60.5z" />
    <glyph glyph-name="Uogonek.small" unicode="&#xe072;" horiz-adv-x="622" 
d="M391 -214q-16 -10 -39.5 -15.5t-46.5 -5.5q-46 0 -74 27.5t-28 72.5q0 35 16.5 66.5t52.5 61.5q-55 5 -93 23.5t-60 51.5q-20 31 -29.5 79.5t-9.5 129.5v269h110v-278q0 -54 4 -79.5t12 -43.5q13 -27 39 -39.5t67 -12.5q40 0 65.5 12.5t38.5 39.5q8 17 11.5 42t3.5 81
v278h111v-269q0 -135 -35.5 -199t-117.5 -80q-37 -22 -59 -52.5t-22 -58.5q0 -16 10.5 -25t28.5 -9q11 0 23 3.5t21 9.5v-80z" />
    <glyph glyph-name="Uring.small" unicode="&#xe073;" horiz-adv-x="622" 
d="M311 903q53 0 91 -38t38 -91t-38 -91t-91 -38t-91 38t-38 91t38 91t91 38zM311 829q-25 0 -40 -14.5t-15 -40.5q0 -25 15 -40t40 -15t40 15t15 40t-15 40t-40 15zM311 -8q-72 0 -119 18.5t-73 57.5q-20 31 -29.5 79.5t-9.5 129.5v269h110v-278q0 -54 4 -79.5t12 -43.5
q13 -27 39 -39.5t67 -12.5q40 0 65.5 12.5t38.5 39.5q8 17 11.5 42t3.5 81v278h111v-269q0 -164 -53 -224.5t-178 -60.5z" />
    <glyph glyph-name="Utilde.small" unicode="&#xe074;" horiz-adv-x="622" 
d="M475 839q1 -87 -26 -133t-75 -43q-20 2 -38.5 12t-43.5 37q-15 16 -21.5 21t-12.5 5q-14 1 -21.5 -17.5t-7.5 -55.5h-82q-1 85 26 131t75 43q22 -2 40.5 -12t43.5 -38q14 -15 20 -19.5t12 -4.5q14 -1 21.5 18t7.5 56h82zM311 -8q-72 0 -119 18.5t-73 57.5
q-20 31 -29.5 79.5t-9.5 129.5v269h110v-278q0 -54 4 -79.5t12 -43.5q13 -27 39 -39.5t67 -12.5q40 0 65.5 12.5t38.5 39.5q8 17 11.5 42t3.5 81v278h111v-269q0 -164 -53 -224.5t-178 -60.5z" />
    <glyph glyph-name="V.small" unicode="&#xe075;" horiz-adv-x="563" 
d="M533 546l-189 -546h-124l-190 546h115l136 -428h3l134 428h115z" />
    <glyph glyph-name="W.small" unicode="&#xe076;" horiz-adv-x="781" 
d="M389 386l-106 -386h-127l-126 546h114l50 -234q5 -21 9 -45l11 -66q4 -29 6 -40t4 -17h3q2 6 4.5 16.5t8.5 37.5q10 42 16 67t12 48l65 233h115l67 -233q5 -18 10.5 -39.5t14.5 -61.5q8 -35 11.5 -48t5.5 -20h2q2 7 4.5 21.5t9.5 52.5q6 39 9.5 59t6.5 36l48 233h114
l-126 -546h-127l-107 386h-2z" />
    <glyph glyph-name="Wacute.small" unicode="&#xe077;" horiz-adv-x="781" 
d="M588 822l-203 -176l-58 60l164 197zM389 386l-106 -386h-127l-126 546h114l50 -234q5 -21 9 -45l11 -66q4 -29 6 -40t4 -17h3q2 6 4.5 16.5t8.5 37.5q10 42 16 67t12 48l65 233h115l67 -233q5 -18 10.5 -39.5t14.5 -61.5q8 -35 11.5 -48t5.5 -20h2q2 7 4.5 21.5t9.5 52.5
q6 39 9.5 59t6.5 36l48 233h114l-126 -546h-127l-107 386h-2z" />
    <glyph glyph-name="Wcircumflex.small" unicode="&#xe078;" horiz-adv-x="781" 
d="M390 756l-101 -119l-62 51l121 175h85l121 -175l-62 -51zM389 386l-106 -386h-127l-126 546h114l50 -234q5 -21 9 -45l11 -66q4 -29 6 -40t4 -17h3q2 6 4.5 16.5t8.5 37.5q10 42 16 67t12 48l65 233h115l67 -233q5 -18 10.5 -39.5t14.5 -61.5q8 -35 11.5 -48t5.5 -20h2
q2 7 4.5 21.5t9.5 52.5q6 39 9.5 59t6.5 36l48 233h114l-126 -546h-127l-107 386h-2z" />
    <glyph glyph-name="Wdieresis.small" unicode="&#xe079;" horiz-adv-x="781" 
d="M500 852q33 0 55.5 -22.5t22.5 -55.5t-22.5 -55.5t-55.5 -22.5t-55.5 22.5t-22.5 55.5t22.5 55.5t55.5 22.5zM280 852q33 0 55.5 -22.5t22.5 -55.5t-22.5 -55.5t-55.5 -22.5t-55.5 22.5t-22.5 55.5t22.5 55.5t55.5 22.5zM389 386l-106 -386h-127l-126 546h114l50 -234
q5 -21 9 -45l11 -66q4 -29 6 -40t4 -17h3q2 6 4.5 16.5t8.5 37.5q10 42 16 67t12 48l65 233h115l67 -233q5 -18 10.5 -39.5t14.5 -61.5q8 -35 11.5 -48t5.5 -20h2q2 7 4.5 21.5t9.5 52.5q6 39 9.5 59t6.5 36l48 233h114l-126 -546h-127l-107 386h-2z" />
    <glyph glyph-name="Wgrave.small" unicode="&#xe07a;" horiz-adv-x="781" 
d="M296 901l160 -194l-58 -60l-203 176zM389 386l-106 -386h-127l-126 546h114l50 -234q5 -21 9 -45l11 -66q4 -29 6 -40t4 -17h3q2 6 4.5 16.5t8.5 37.5q10 42 16 67t12 48l65 233h115l67 -233q5 -18 10.5 -39.5t14.5 -61.5q8 -35 11.5 -48t5.5 -20h2q2 7 4.5 21.5
t9.5 52.5q6 39 9.5 59t6.5 36l48 233h114l-126 -546h-127l-107 386h-2z" />
    <glyph glyph-name="X.small" unicode="&#xe07b;" horiz-adv-x="524" 
d="M257 188l-115 -188h-122l184 286l-176 260h123l114 -176h2l107 176h123l-177 -274l184 -272h-123l-122 188h-2z" />
    <glyph glyph-name="Y.small" unicode="&#xe07c;" horiz-adv-x="524" 
d="M318 230v-230h-110v230l-198 316h124l109 -172q7 -12 12.5 -26.5t6.5 -20.5h2q1 6 7 20t13 27l106 172h124z" />
    <glyph glyph-name="Yacute.small" unicode="&#xe07d;" horiz-adv-x="524" 
d="M461 822l-203 -176l-58 60l164 197zM318 230v-230h-110v230l-198 316h124l109 -172q7 -12 12.5 -26.5t6.5 -20.5h2q1 6 7 20t13 27l106 172h124z" />
    <glyph glyph-name="Ycircumflex.small" unicode="&#xe07e;" horiz-adv-x="524" 
d="M262 756l-101 -119l-62 51l121 175h85l121 -175l-62 -51zM318 230v-230h-110v230l-198 316h124l109 -172q7 -12 12.5 -26.5t6.5 -20.5h2q1 6 7 20t13 27l106 172h124z" />
    <glyph glyph-name="Ydieresis.small" unicode="&#xe07f;" horiz-adv-x="524" 
d="M372 852q33 0 55.5 -22.5t22.5 -55.5t-22.5 -55.5t-55.5 -22.5t-55.5 22.5t-22.5 55.5t22.5 55.5t55.5 22.5zM152 852q33 0 55.5 -22.5t22.5 -55.5t-22.5 -55.5t-55.5 -22.5t-55.5 22.5t-22.5 55.5t22.5 55.5t55.5 22.5zM318 230v-230h-110v230l-198 316h124l109 -172
q7 -12 12.5 -26.5t6.5 -20.5h2q1 6 7 20t13 27l106 172h124z" />
    <glyph glyph-name="Ygrave.small" unicode="&#xe080;" horiz-adv-x="524" 
d="M167 901l160 -194l-58 -60l-203 176zM318 230v-230h-110v230l-198 316h124l109 -172q7 -12 12.5 -26.5t6.5 -20.5h2q1 6 7 20t13 27l106 172h124z" />
    <glyph glyph-name="Z.small" unicode="&#xe081;" horiz-adv-x="504" 
d="M449 96v-96h-394v92l260 356l-2 2h-251v96h380v-95l-261 -353l3 -2h265z" />
    <glyph glyph-name="Zacute.small" unicode="&#xe082;" horiz-adv-x="504" 
d="M437 822l-203 -176l-58 60l164 197zM449 96v-96h-394v92l260 356l-2 2h-251v96h380v-95l-261 -353l3 -2h265z" />
    <glyph glyph-name="Zcaron.small" unicode="&#xe083;" horiz-adv-x="504" 
d="M253 748l101 119l62 -51l-121 -175h-85l-121 175l62 51zM449 96v-96h-394v92l260 356l-2 2h-251v96h380v-95l-261 -353l3 -2h265z" />
    <glyph glyph-name="Zdotaccent.small" unicode="&#xe084;" horiz-adv-x="504" 
d="M330 751q0 -33 -22.5 -55.5t-55.5 -22.5t-55.5 22.5t-22.5 55.5t22.5 55.5t55.5 22.5t55.5 -22.5t22.5 -55.5zM449 96v-96h-394v92l260 356l-2 2h-251v96h380v-95l-261 -353l3 -2h265z" />
    <glyph glyph-name="ampersand.small" unicode="&#xe087;" horiz-adv-x="582" 
d="M164 397q0 -34 32 -53.5t86 -19.5h253v-93h-97v-67q0 -42 11.5 -58.5t39.5 -16.5q11 0 24 2.5t29 7.5v-92q-22 -8 -41 -11.5t-38 -3.5q-38 0 -66 15t-44 46q-10 -12 -22.5 -22t-28.5 -18q-19 -11 -39.5 -16t-42.5 -5q-77 0 -123.5 44t-46.5 118q0 47 25 81.5t66 45.5v2
q-38 13 -60.5 47.5t-22.5 80.5q0 65 48 103.5t131 38.5q42 0 81.5 -8.5t66.5 -22.5v-104q-13 9 -29 16.5t-35 13.5q-18 5 -36 8t-35 3q-42 0 -64 -16t-22 -46zM156 161q0 -36 22.5 -55.5t64.5 -19.5q32 0 55.5 10.5t35.5 30.5v104h-52q-68 0 -97 -17t-29 -53z" />
    <glyph glyph-name="at.small" unicode="&#xe08d;" horiz-adv-x="611" 
d="M529 38q-33 -21 -82.5 -33t-103.5 -12q-137 0 -215 76.5t-78 206.5q0 126 77 201.5t209 75.5q102 0 148.5 -45t46.5 -143v-198h-81l-13 33l-2 1q-20 -20 -46 -30.5t-56 -10.5q-53 0 -84 31t-31 82q0 57 42 86t126 29h39v12q0 32 -22 46t-73 14q-87 0 -133 -46t-46 -132
q0 -92 50 -144.5t141 -52.5q44 0 88.5 13.5t86.5 39.5zM394 319q-39 0 -57 -9t-18 -30q0 -19 11.5 -29t34.5 -10q21 0 41 8.5t28 19.5v50h-40z" />
    <glyph glyph-name="braceleft.small" unicode="&#xe090;" horiz-adv-x="285" 
d="M97 107q11 27 14.5 40.5t3.5 24.5q0 23 -12 41t-33 24v72q21 6 33 24t12 41q0 11 -3.5 24.5t-14.5 40.5q-12 30 -15.5 45t-3.5 28q0 69 48 101.5t135 23.5l4 -85q-46 5 -64.5 -6.5t-18.5 -41.5q0 -12 3.5 -26t14.5 -43q12 -30 15.5 -45t3.5 -28q0 -28 -12 -50t-37 -39
q25 -17 37 -38.5t12 -50.5q0 -13 -3.5 -28t-15.5 -45q-11 -29 -14.5 -43t-3.5 -26q0 -30 17.5 -41t61.5 -7v-85q-87 -9 -135 23.5t-48 101.5q0 13 3.5 28t15.5 45z" />
    <glyph glyph-name="braceright.small" unicode="&#xe092;" horiz-adv-x="285" 
d="M188 440q-11 -27 -14.5 -40.5t-3.5 -24.5q0 -23 12 -41t33 -24v-72q-21 -6 -33 -24t-12 -41q0 -11 3.5 -24.5t14.5 -40.5q12 -30 15.5 -45t3.5 -28q0 -69 -48 -101.5t-135 -23.5l-4 85q46 -5 64.5 6.5t18.5 41.5q0 12 -3.5 26t-14.5 43q-12 30 -15.5 45t-3.5 28
q0 28 12 50t37 39q-25 17 -37 38.5t-12 50.5q0 13 3.5 28t15.5 45q11 29 14.5 43t3.5 26q0 30 -17.5 41t-61.5 7v85q87 9 135 -23.5t48 -101.5q0 -13 -3.5 -28t-15.5 -45z" />
    <glyph glyph-name="bracketleft.small" unicode="&#xe094;" horiz-adv-x="269" 
d="M249 548h-75v-549h75v-88h-179v725h179v-88z" />
    <glyph glyph-name="bracketright.small" unicode="&#xe096;" horiz-adv-x="269" 
d="M20 -1h75v549h-75v88h179v-725h-179v88z" />
    <glyph glyph-name="breve.cap" unicode="&#xe097;" horiz-adv-x="460" 
d="M410 1004q0 -81 -48 -131t-132 -50t-132 50t-48 131h83q2 -42 27.5 -66.5t69.5 -24.5t69.5 24.5t27.5 66.5h83z" />
    <glyph glyph-name="caronSlovak" unicode="&#xe09a;" horiz-adv-x="301" 
d="M264 880l-94 -252l-80 25l51 252z" />
    <glyph glyph-name="cent.LP" unicode="&#xe09b;" horiz-adv-x="494" 
d="M444 136q-19 -12 -46 -21t-57 -13v-102h-112v107q-84 21 -131.5 93.5t-47.5 181.5t47.5 182t131.5 94v105h112v-100q30 -4 56.5 -12t43.5 -19v-108q-18 18 -56.5 29.5t-78.5 11.5q-73 0 -108 -44t-35 -134q0 -94 35 -140.5t106 -46.5q37 0 77.5 12t62.5 29v-105z" />
    <glyph glyph-name="cent.LT" unicode="&#xe09c;" horiz-adv-x="660" 
d="M527 136q-19 -12 -46 -21t-57 -13v-102h-112v107q-84 21 -131.5 93.5t-47.5 181.5t47.5 182t131.5 94v105h112v-100q30 -4 56.5 -12t43.5 -19v-108q-18 18 -56.5 29.5t-78.5 11.5q-73 0 -108 -44t-35 -134q0 -94 35 -140.5t106 -46.5q37 0 77.5 12t62.5 29v-105z" />
    <glyph glyph-name="cent.OP" unicode="&#xe09d;" horiz-adv-x="494" 
d="M444 26q-20 -13 -48 -22t-59 -12v-70h-112v76q-82 22 -128.5 94t-46.5 180q0 107 46.5 179.5t128.5 95.5v76h112v-69q31 -4 59 -12.5t45 -19.5v-108q-18 18 -56.5 29.5t-78.5 11.5q-73 0 -108 -44t-35 -134q0 -94 35 -140.5t106 -46.5q37 0 77.5 12t62.5 29v-105z" />
    <glyph glyph-name="cent.OT" unicode="&#xe09e;" horiz-adv-x="660" 
d="M527 26q-20 -13 -48 -22t-59 -12v-70h-112v76q-82 22 -128.5 94t-46.5 180q0 107 46.5 179.5t128.5 95.5v76h112v-69q31 -4 59 -12.5t45 -19.5v-108q-18 18 -56.5 29.5t-78.5 11.5q-73 0 -108 -44t-35 -134q0 -94 35 -140.5t106 -46.5q37 0 77.5 12t62.5 29v-105z" />
    <glyph glyph-name="commaaccent" unicode="&#xe0a4;" horiz-adv-x="500" 
d="M383 -134l-154 -117l-58 60l115 138z" />
    <glyph glyph-name="commaaccent.alt" unicode="&#xe0a5;" horiz-adv-x="500" 
d="M140 729l203 176l58 -60l-164 -197z" />
    <glyph glyph-name="dollar.LP" unicode="&#xe0a8;" horiz-adv-x="570" 
d="M510 208q0 -80 -44.5 -134t-124.5 -74v-78h-112v67q-45 2 -86.5 12t-82.5 28v120q41 -27 89 -41.5t97 -14.5q67 0 104.5 27t37.5 75q0 37 -25.5 67.5t-112.5 77.5q-57 31 -83.5 49.5t-45.5 38.5q-29 29 -43 64.5t-14 77.5q0 76 44 127.5t121 68.5v104h112v-97
q36 -3 69.5 -12t62.5 -24v-126q-29 26 -75.5 41t-95.5 15q-56 0 -86 -22.5t-30 -63.5q0 -35 24.5 -63.5t108.5 -72.5q59 -31 86.5 -50t46.5 -39q30 -31 44 -67.5t14 -80.5z" />
    <glyph glyph-name="dollar.LT" unicode="&#xe0a9;" horiz-adv-x="660" 
d="M555 208q0 -80 -44.5 -134t-124.5 -74v-78h-112v67q-45 2 -86.5 12t-82.5 28v120q41 -27 89 -41.5t97 -14.5q67 0 104.5 27t37.5 75q0 37 -25.5 67.5t-112.5 77.5q-57 31 -83.5 49.5t-45.5 38.5q-29 29 -43 64.5t-14 77.5q0 76 44 127.5t121 68.5v104h112v-97
q36 -3 69.5 -12t62.5 -24v-126q-29 26 -75.5 41t-95.5 15q-56 0 -86 -22.5t-30 -63.5q0 -35 24.5 -63.5t108.5 -72.5q59 -31 86.5 -50t46.5 -39q30 -31 44 -67.5t14 -80.5z" />
    <glyph glyph-name="dollar.OP" unicode="&#xe0aa;" horiz-adv-x="497" 
d="M437 150q0 -58 -34.5 -98t-95.5 -56v-74h-112v68q-36 4 -69.5 14t-55.5 24v107q13 -12 31.5 -21.5t42.5 -17.5q20 -6 41 -9.5t43 -3.5q47 0 73 14.5t26 41.5q0 22 -19 40t-83 45q-48 21 -70.5 34t-38.5 27q-26 22 -38.5 49.5t-12.5 61.5q0 58 34.5 97.5t95.5 54.5v75h112
v-71q32 -3 61 -12.5t49 -21.5v-100q-36 20 -76.5 31t-78.5 11q-42 0 -64.5 -15t-22.5 -41q0 -22 19 -39.5t83 -44.5q48 -20 70.5 -33t38.5 -27q26 -22 38.5 -49t12.5 -61z" />
    <glyph glyph-name="dollar.OT" unicode="&#xe0ab;" horiz-adv-x="660" 
d="M516 150q0 -58 -34.5 -98t-95.5 -56v-74h-112v68q-36 4 -69.5 14t-55.5 24v107q13 -12 31.5 -21.5t42.5 -17.5q20 -6 41 -9.5t43 -3.5q47 0 73 14.5t26 41.5q0 22 -19 40t-83 45q-48 21 -70.5 34t-38.5 27q-26 22 -38.5 49.5t-12.5 61.5q0 58 34.5 97.5t95.5 54.5v75h112
v-71q32 -3 61 -12.5t49 -21.5v-100q-36 20 -76.5 31t-78.5 11q-42 0 -64.5 -15t-22.5 -41q0 -22 19 -39.5t83 -44.5q48 -20 70.5 -33t38.5 -27q26 -22 38.5 -49t12.5 -61z" />
    <glyph glyph-name="eight.LP" unicode="&#xe0af;" horiz-adv-x="674" 
d="M604 209q0 -95 -77 -157.5t-189 -62.5q-121 0 -194.5 58t-73.5 154q0 61 36 114t101 90q-52 27 -80.5 69.5t-28.5 93.5q0 89 68.5 147.5t172.5 58.5q103 0 167.5 -54t64.5 -138q0 -55 -30 -101t-80 -71q73 -37 108 -86.5t35 -114.5zM454 565q0 51 -32.5 82t-88.5 31
q-52 0 -85 -30t-33 -75q0 -42 37.5 -73t116.5 -54q39 19 62 50.5t23 68.5zM487 210q0 48 -50 87t-145 63q-47 -20 -76 -58.5t-29 -84.5q0 -60 39.5 -96t106.5 -36q71 0 112.5 33.5t41.5 91.5z" />
    <glyph glyph-name="eight.LT" unicode="&#xe0b0;" horiz-adv-x="660" 
d="M597 209q0 -95 -77 -157.5t-189 -62.5q-121 0 -194.5 58t-73.5 154q0 61 36 114t101 90q-52 27 -80.5 69.5t-28.5 93.5q0 89 68.5 147.5t172.5 58.5q103 0 167.5 -54t64.5 -138q0 -55 -30 -101t-80 -71q73 -37 108 -86.5t35 -114.5zM447 565q0 51 -32.5 82t-88.5 31
q-52 0 -85 -30t-33 -75q0 -42 37.5 -73t116.5 -54q39 19 62 50.5t23 68.5zM480 210q0 48 -50 87t-145 63q-47 -20 -76 -58.5t-29 -84.5q0 -60 39.5 -96t106.5 -36q71 0 112.5 33.5t41.5 91.5z" />
    <glyph glyph-name="eight.OP" unicode="&#xe0b1;" horiz-adv-x="674" 
d="M604 209q0 -95 -77 -157.5t-189 -62.5q-121 0 -194.5 58t-73.5 154q0 61 36 114t101 90q-52 27 -80.5 69.5t-28.5 93.5q0 89 68.5 147.5t172.5 58.5q103 0 167.5 -54t64.5 -138q0 -55 -30 -101t-80 -71q73 -37 108 -86.5t35 -114.5zM454 565q0 51 -32.5 82t-88.5 31
q-52 0 -85 -30t-33 -75q0 -42 37.5 -73t116.5 -54q39 19 62 50.5t23 68.5zM487 210q0 48 -50 87t-145 63q-47 -20 -76 -58.5t-29 -84.5q0 -60 39.5 -96t106.5 -36q71 0 112.5 33.5t41.5 91.5z" />
    <glyph glyph-name="eight.OT" unicode="&#xe0b2;" horiz-adv-x="660" 
d="M597 209q0 -95 -77 -157.5t-189 -62.5q-121 0 -194.5 58t-73.5 154q0 61 36 114t101 90q-52 27 -80.5 69.5t-28.5 93.5q0 89 68.5 147.5t172.5 58.5q103 0 167.5 -54t64.5 -138q0 -55 -30 -101t-80 -71q73 -37 108 -86.5t35 -114.5zM447 565q0 51 -32.5 82t-88.5 31
q-52 0 -85 -30t-33 -75q0 -42 37.5 -73t116.5 -54q39 19 62 50.5t23 68.5zM480 210q0 48 -50 87t-145 63q-47 -20 -76 -58.5t-29 -84.5q0 -60 39.5 -96t106.5 -36q71 0 112.5 33.5t41.5 91.5z" />
    <glyph glyph-name="five.LP" unicode="&#xe0bf;" horiz-adv-x="601" 
d="M258 -11q-25 0 -48 2t-44 7q-30 6 -51 14t-35 18v113q15 -12 37 -21.5t50 -17.5q23 -6 46.5 -9t48.5 -3q70 0 111 37.5t41 100.5q0 54 -30.5 86.5t-91.5 43.5q-26 5 -58.5 6t-138.5 -6v404h396v-103h-281v-200q154 13 237.5 -46t83.5 -179q0 -108 -74.5 -177.5
t-198.5 -69.5z" />
    <glyph glyph-name="five.LT" unicode="&#xe0c0;" horiz-adv-x="661" 
d="M283 -11q-25 0 -48 2t-44 7q-30 6 -51 14t-35 18v113q15 -12 37 -21.5t50 -17.5q23 -6 46.5 -9t48.5 -3q70 0 111 37.5t41 100.5q0 54 -30.5 86.5t-91.5 43.5q-26 5 -58.5 6t-138.5 -6v404h396v-103h-281v-200q154 13 237.5 -46t83.5 -179q0 -108 -74.5 -177.5
t-198.5 -69.5z" />
    <glyph glyph-name="five.OP" unicode="&#xe0c1;" horiz-adv-x="601" 
d="M258 -230q-25 0 -48 2t-44 7q-30 6 -51 14t-35 18v113q15 -12 37 -21.5t50 -17.5q23 -6 46.5 -9t48.5 -3q70 0 111 37.5t41 100.5q0 54 -30.5 86.5t-91.5 43.5q-26 5 -58.5 6t-138.5 -6v404h396v-103h-281v-200q154 13 237.5 -46t83.5 -179q0 -108 -74.5 -177.5
t-198.5 -69.5z" />
    <glyph glyph-name="five.OT" unicode="&#xe0c2;" horiz-adv-x="661" 
d="M283 -230q-25 0 -48 2t-44 7q-30 6 -51 14t-35 18v113q15 -12 37 -21.5t50 -17.5q23 -6 46.5 -9t48.5 -3q70 0 111 37.5t41 100.5q0 54 -30.5 86.5t-91.5 43.5q-26 5 -58.5 6t-138.5 -6v404h396v-103h-281v-200q154 13 237.5 -46t83.5 -179q0 -108 -74.5 -177.5
t-198.5 -69.5z" />
    <glyph glyph-name="florin.LP" unicode="&#xe0c6;" horiz-adv-x="378" 
d="M204 8q-10 -129 -72.5 -186t-187.5 -57h-14v101q85 0 119.5 31t39.5 101l24 349h-94v95h100l6 86q8 117 60.5 179.5t144.5 62.5q17 0 36 -3t32 -8v-110q-11 7 -29 12t-35 5q-45 0 -67 -32t-27 -104l-6 -88h124v-95h-131z" />
    <glyph glyph-name="florin.LT" unicode="&#xe0c7;" horiz-adv-x="660" 
d="M370 8q-10 -129 -72.5 -186t-187.5 -57h-14v101q85 0 119.5 31t39.5 101l24 349h-94v95h100l6 86q8 117 60.5 179.5t144.5 62.5q17 0 36 -3t32 -8v-110q-11 7 -29 12t-35 5q-45 0 -67 -32t-27 -104l-6 -88h124v-95h-131z" />
    <glyph glyph-name="florin.OP" unicode="&#xe0c8;" horiz-adv-x="378" 
d="M204 8q-10 -129 -72.5 -186t-187.5 -57h-14v101q85 0 119.5 31t39.5 101l24 349h-94v95h100l6 86q8 117 60.5 179.5t144.5 62.5q17 0 36 -3t32 -8v-110q-11 7 -29 12t-35 5q-45 0 -67 -32t-27 -104l-6 -88h124v-95h-131z" />
    <glyph glyph-name="florin.OT" unicode="&#xe0c9;" horiz-adv-x="660" 
d="M370 8q-10 -129 -72.5 -186t-187.5 -57h-14v101q85 0 119.5 31t39.5 101l24 349h-94v95h100l6 86q8 117 60.5 179.5t144.5 62.5q17 0 36 -3t32 -8v-110q-11 7 -29 12t-35 5q-45 0 -67 -32t-27 -104l-6 -88h124v-95h-131z" />
    <glyph glyph-name="four.LP" unicode="&#xe0ca;" horiz-adv-x="651" 
d="M378 0v179h-328v96l307 488h136v-488h88v-96h-88v-179h-115zM172 275h206v358h-3q-4 -11 -11 -25t-53 -91l-142 -239z" />
    <glyph glyph-name="four.LT" unicode="&#xe0cb;" horiz-adv-x="661" 
d="M393 0v179h-328v96l307 488h136v-488h88v-96h-88v-179h-115zM187 275h206v358h-3q-4 -11 -11 -25t-53 -91l-142 -239z" />
    <glyph glyph-name="four.OP" unicode="&#xe0cc;" horiz-adv-x="651" 
d="M378 -218v179h-328v96l307 488h136v-488h88v-96h-88v-179h-115zM172 57h206v358h-3q-4 -11 -11 -25t-53 -91l-142 -239z" />
    <glyph glyph-name="four.OT" unicode="&#xe0cd;" horiz-adv-x="661" 
d="M393 -218v179h-328v96l307 488h136v-488h88v-96h-88v-179h-115zM187 57h206v358h-3q-4 -11 -11 -25t-53 -91l-142 -239z" />
    <glyph glyph-name="germandbls.cap" unicode="&#xe0d1;" horiz-adv-x="1121" 
d="M510 208q0 -102 -70.5 -160.5t-195.5 -58.5q-49 0 -94.5 10t-89.5 30v120q41 -27 89 -41.5t97 -14.5q67 0 104.5 27t37.5 75q0 37 -25.5 67.5t-112.5 77.5q-57 31 -83.5 49.5t-45.5 38.5q-29 29 -43 64.5t-14 77.5q0 94 66 149t178 55q46 0 88 -9.5t77 -27.5v-126
q-29 26 -75.5 41t-95.5 15q-56 0 -86 -22.5t-30 -63.5q0 -35 24.5 -63.5t108.5 -72.5q59 -31 86.5 -50t46.5 -39q30 -31 44 -67.5t14 -80.5zM1061 208q0 -102 -70.5 -160.5t-195.5 -58.5q-49 0 -94.5 10t-89.5 30v120q41 -27 89 -41.5t97 -14.5q67 0 104.5 27t37.5 75
q0 37 -25.5 67.5t-112.5 77.5q-57 31 -83.5 49.5t-45.5 38.5q-29 29 -43 64.5t-14 77.5q0 94 66 149t178 55q46 0 88 -9.5t77 -27.5v-126q-29 26 -75.5 41t-95.5 15q-56 0 -86 -22.5t-30 -63.5q0 -35 24.5 -63.5t108.5 -72.5q59 -31 86.5 -50t46.5 -39q30 -31 44 -67.5
t14 -80.5z" />
    <glyph glyph-name="germandbls.small" unicode="&#xe0d2;" horiz-adv-x="599" 
d="M94 0v273h-54v96h54q3 85 55.5 134t144.5 49q78 0 127 -37.5t49 -94.5q0 -29 -13 -52.5t-50 -51.5q-22 -16 -28 -24.5t-6 -17.5q0 -11 11 -19.5t49 -21.5q69 -24 92.5 -50t23.5 -65q0 -56 -43.5 -91t-114.5 -35q-35 0 -70 7t-58 19v99q19 -14 52.5 -24.5t66.5 -10.5
q30 0 46 8t16 22q0 12 -11 20.5t-50 22.5q-68 23 -91.5 49.5t-23.5 66.5q0 25 11.5 45t46.5 48q23 18 30 28t7 20q0 19 -20 30.5t-53 11.5q-45 0 -66 -26t-21 -81v-347h-109z" />
    <glyph glyph-name="idotaccent" unicode="&#xe0dc;" horiz-adv-x="292" 
d="M224 751q0 -33 -22.5 -55.5t-55.5 -22.5t-55.5 22.5t-22.5 55.5t22.5 55.5t55.5 22.5t55.5 -22.5t22.5 -55.5zM202 545v-545h-112v545h112z" />
    <glyph glyph-name="macron.cap" unicode="&#xe0e2;" horiz-adv-x="462" 
d="M412 975v-92h-362v92h362z" />
    <glyph glyph-name="nine.LP" unicode="&#xe0e4;" horiz-adv-x="643" 
d="M65 520q0 110 69.5 182t180.5 72q126 0 192 -94.5t66 -272.5q0 -201 -80.5 -309.5t-231.5 -108.5q-38 0 -78.5 8t-80.5 23v114q45 -21 83 -31.5t72 -10.5q98 0 149.5 62t51.5 180q-35 -25 -75 -37.5t-82 -12.5q-109 0 -172.5 64t-63.5 172zM182 529q0 -72 37.5 -110.5
t106.5 -38.5q40 0 74.5 12.5t57.5 34.5q0 123 -36.5 186t-108.5 63q-62 0 -96.5 -39.5t-34.5 -107.5z" />
    <glyph glyph-name="nine.LT" unicode="&#xe0e5;" horiz-adv-x="660" 
d="M76 520q0 110 69.5 182t180.5 72q126 0 192 -94.5t66 -272.5q0 -201 -80.5 -309.5t-231.5 -108.5q-38 0 -78.5 8t-80.5 23v114q45 -21 83 -31.5t72 -10.5q98 0 149.5 62t51.5 180q-35 -25 -75 -37.5t-82 -12.5q-109 0 -172.5 64t-63.5 172zM193 529q0 -72 37.5 -110.5
t106.5 -38.5q40 0 74.5 12.5t57.5 34.5q0 123 -36.5 186t-108.5 63q-62 0 -96.5 -39.5t-34.5 -107.5z" />
    <glyph glyph-name="nine.OP" unicode="&#xe0e6;" horiz-adv-x="643" 
d="M65 302q0 110 69.5 182t180.5 72q126 0 192 -94.5t66 -272.5q0 -201 -80.5 -309.5t-231.5 -108.5q-38 0 -78.5 8t-80.5 23v114q45 -21 83 -31.5t72 -10.5q98 0 149.5 62t51.5 180q-35 -25 -75 -37.5t-82 -12.5q-109 0 -172.5 64t-63.5 172zM182 311q0 -72 37.5 -110.5
t106.5 -38.5q40 0 74.5 12.5t57.5 34.5q0 123 -36.5 186t-108.5 63q-62 0 -96.5 -39.5t-34.5 -107.5z" />
    <glyph glyph-name="nine.OT" unicode="&#xe0e7;" horiz-adv-x="660" 
d="M76 302q0 110 69.5 182t180.5 72q126 0 192 -94.5t66 -272.5q0 -201 -80.5 -309.5t-231.5 -108.5q-38 0 -78.5 8t-80.5 23v114q45 -21 83 -31.5t72 -10.5q98 0 149.5 62t51.5 180q-35 -25 -75 -37.5t-82 -12.5q-109 0 -172.5 64t-63.5 172zM193 311q0 -72 37.5 -110.5
t106.5 -38.5q40 0 74.5 12.5t57.5 34.5q0 123 -36.5 186t-108.5 63q-62 0 -96.5 -39.5t-34.5 -107.5z" />
    <glyph glyph-name="numbersign.LP" unicode="&#xe0ea;" horiz-adv-x="786" 
d="M366 0l59 210h-158l-59 -210h-112l59 210h-95v101h123l38 133h-89v101h117l61 218h112l-61 -218h158l61 218h112l-61 -218h95v-101h-123l-38 -133h89v-101h-117l-59 -210h-112zM295 311h158l38 133h-158z" />
    <glyph glyph-name="numbersign.LT" unicode="&#xe0eb;" horiz-adv-x="660" 
d="M303 0l59 210h-158l-59 -210h-112l59 210h-95v101h123l38 133h-89v101h117l61 218h112l-61 -218h158l61 218h112l-61 -218h95v-101h-123l-38 -133h89v-101h-117l-59 -210h-112zM232 311h158l38 133h-158z" />
    <glyph glyph-name="numbersign.OP" unicode="&#xe0ec;" horiz-adv-x="732" 
d="M347 0l34 120h-118l-34 -120h-112l34 120h-91v101h119l32 113h-79v101h107l31 110h112l-31 -110h118l31 110h112l-31 -110h91v-101h-119l-32 -113h79v-101h-107l-34 -120h-112zM291 221h118l32 113h-118z" />
    <glyph glyph-name="numbersign.OT" unicode="&#xe0ed;" horiz-adv-x="660" 
d="M311 0l34 120h-118l-34 -120h-112l34 120h-91v101h119l32 113h-79v101h107l31 110h112l-31 -110h118l31 110h112l-31 -110h91v-101h-119l-32 -113h79v-101h-107l-34 -120h-112zM255 221h118l32 113h-118z" />
    <glyph glyph-name="one.LP" unicode="&#xe0f0;" horiz-adv-x="537" 
d="M492 103v-103h-423v103h154v461h-163v90q21 0 39 2.5t34 6.5q19 6 34.5 14.5t26.5 20.5q15 16 22 32t7 33h115v-660h154z" />
    <glyph glyph-name="one.LT" unicode="&#xe0f1;" horiz-adv-x="660" 
d="M546 103v-103h-423v103h154v461h-163v90q21 0 39 2.5t34 6.5q19 6 34.5 14.5t26.5 20.5q15 16 22 32t7 33h115v-660h154z" />
    <glyph glyph-name="one.OP" unicode="&#xe0f2;" horiz-adv-x="484" 
d="M439 103v-103h-372v103h130v277h-137v91q16 0 30.5 1.5t27.5 4.5q16 3 28.5 8.5t22.5 12.5q14 11 21 22.5t7 24.5h112v-442h130z" />
    <glyph glyph-name="one.OT" unicode="&#xe0f3;" horiz-adv-x="661" 
d="M520 103v-103h-372v103h130v277h-137v91q16 0 30.5 1.5t27.5 4.5q16 3 28.5 8.5t22.5 12.5q14 11 21 22.5t7 24.5h112v-442h130z" />
    <glyph glyph-name="parenleft.small" unicode="&#xe0f8;" horiz-adv-x="293" 
d="M174 274q0 -95 25.5 -179t73.5 -146l-73 -53q-63 73 -96.5 171t-33.5 206t33.5 206t96.5 172l73 -53q-48 -61 -73.5 -145.5t-25.5 -178.5z" />
    <glyph glyph-name="parenright.small" unicode="&#xe0fa;" horiz-adv-x="293" 
d="M119 273q0 95 -25.5 179t-73.5 146l73 53q63 -73 96.5 -171t33.5 -206t-33.5 -206t-96.5 -172l-73 53q48 61 73.5 145.5t25.5 178.5z" />
    <glyph glyph-name="ring.cap" unicode="&#xe0ff;" horiz-adv-x="454" 
d="M227 1044q73 0 118.5 -34.5t45.5 -86.5t-45.5 -86.5t-118.5 -34.5t-118.5 34.5t-45.5 86.5t45.5 86.5t118.5 34.5zM227 969q-34 0 -54 -12.5t-20 -33.5t20 -33.5t54 -12.5q33 0 53.5 12.5t20.5 33.5t-20.5 33.5t-53.5 12.5z" />
    <glyph glyph-name="seven.LP" unicode="&#xe102;" horiz-adv-x="534" 
d="M494 651l-290 -651h-119l296 657l-3 3h-348v103h464v-112z" />
    <glyph glyph-name="seven.LT" unicode="&#xe103;" horiz-adv-x="660" 
d="M562 651l-290 -651h-119l296 657l-3 3h-348v103h464v-112z" />
    <glyph glyph-name="seven.OP" unicode="&#xe104;" horiz-adv-x="534" 
d="M494 433l-290 -651h-119l296 657l-3 3h-348v103h464v-112z" />
    <glyph glyph-name="seven.OT" unicode="&#xe105;" horiz-adv-x="660" 
d="M562 433l-290 -651h-119l296 657l-3 3h-348v103h464v-112z" />
    <glyph glyph-name="six.LP" unicode="&#xe108;" horiz-adv-x="643" 
d="M578 243q0 -110 -69.5 -182t-180.5 -72q-126 0 -192 94.5t-66 272.5q0 201 80.5 309.5t231.5 108.5q38 0 78.5 -8t80.5 -23v-114q-45 21 -83 31.5t-72 10.5q-98 0 -149.5 -62t-51.5 -180q35 25 75 37.5t82 12.5q109 0 172.5 -64t63.5 -172zM461 234q0 72 -37.5 110.5
t-106.5 38.5q-40 0 -74.5 -12.5t-57.5 -34.5q0 -123 36.5 -186t108.5 -63q62 0 96.5 39.5t34.5 107.5z" />
    <glyph glyph-name="six.LT" unicode="&#xe109;" horiz-adv-x="660" 
d="M584 243q0 -110 -69.5 -182t-180.5 -72q-126 0 -192 94.5t-66 272.5q0 201 80.5 309.5t231.5 108.5q38 0 78.5 -8t80.5 -23v-114q-45 21 -83 31.5t-72 10.5q-98 0 -149.5 -62t-51.5 -180q35 25 75 37.5t82 12.5q109 0 172.5 -64t63.5 -172zM467 234q0 72 -37.5 110.5
t-106.5 38.5q-40 0 -74.5 -12.5t-57.5 -34.5q0 -123 36.5 -186t108.5 -63q62 0 96.5 39.5t34.5 107.5z" />
    <glyph glyph-name="six.OP" unicode="&#xe10a;" horiz-adv-x="643" 
d="M578 243q0 -110 -69.5 -182t-180.5 -72q-126 0 -192 94.5t-66 272.5q0 201 80.5 309.5t231.5 108.5q38 0 78.5 -8t80.5 -23v-114q-45 21 -83 31.5t-72 10.5q-98 0 -149.5 -62t-51.5 -180q35 25 75 37.5t82 12.5q109 0 172.5 -64t63.5 -172zM461 234q0 72 -37.5 110.5
t-106.5 38.5q-40 0 -74.5 -12.5t-57.5 -34.5q0 -123 36.5 -186t108.5 -63q62 0 96.5 39.5t34.5 107.5z" />
    <glyph glyph-name="six.OT" unicode="&#xe10b;" horiz-adv-x="660" 
d="M584 243q0 -110 -69.5 -182t-180.5 -72q-126 0 -192 94.5t-66 272.5q0 201 80.5 309.5t231.5 108.5q38 0 78.5 -8t80.5 -23v-114q-45 21 -83 31.5t-72 10.5q-98 0 -149.5 -62t-51.5 -180q35 25 75 37.5t82 12.5q109 0 172.5 -64t63.5 -172zM467 234q0 72 -37.5 110.5
t-106.5 38.5q-40 0 -74.5 -12.5t-57.5 -34.5q0 -123 36.5 -186t108.5 -63q62 0 96.5 39.5t34.5 107.5z" />
    <glyph glyph-name="sterling.LP" unicode="&#xe10e;" horiz-adv-x="634" 
d="M574 101v-101h-504v101h78q33 43 42 93t-4 115q-1 5 -3 13.5t-6 19.5h-97v101h70q-8 33 -14 65.5t-6 55.5q0 97 62.5 153t173.5 56q53 0 107 -14t87 -36v-121q-26 27 -76 47t-99 20q-72 0 -106.5 -26t-34.5 -80q0 -14 7.5 -47.5t16.5 -72.5h270v-101h-246q2 -10 3.5 -19
t2.5 -17q9 -65 2 -116t-31 -89h305z" />
    <glyph glyph-name="sterling.LT" unicode="&#xe10f;" horiz-adv-x="660" 
d="M582 101v-101h-504v101h78q33 43 42 93t-4 115q-1 5 -3 13.5t-6 19.5h-97v101h70q-8 33 -14 65.5t-6 55.5q0 97 62.5 153t173.5 56q53 0 107 -14t87 -36v-121q-26 27 -76 47t-99 20q-72 0 -106.5 -26t-34.5 -80q0 -14 7.5 -47.5t16.5 -72.5h270v-101h-246q2 -10 3.5 -19
t2.5 -17q9 -65 2 -116t-31 -89h305z" />
    <glyph glyph-name="sterling.OP" unicode="&#xe110;" horiz-adv-x="521" 
d="M461 96v-96h-401v96h91q5 13 8 27t3 28q0 10 -0.5 21t-3.5 24h-95v95h64q-14 42 -19 65t-5 44q0 75 50 115t146 40q44 0 87.5 -10.5t63.5 -26.5v-102q-18 18 -61.5 31t-91.5 13q-44 0 -64 -16t-20 -50q0 -16 4.5 -36t20.5 -62l2 -5h168v-95h-141q2 -10 2 -19v-18
q0 -16 -3.5 -32t-9.5 -31h205z" />
    <glyph glyph-name="sterling.OT" unicode="&#xe111;" horiz-adv-x="661" 
d="M531 96v-96h-401v96h91q5 13 8 27t3 28q0 10 -0.5 21t-3.5 24h-95v95h64q-14 42 -19 65t-5 44q0 75 50 115t146 40q44 0 87.5 -10.5t63.5 -26.5v-102q-18 18 -61.5 31t-91.5 13q-44 0 -64 -16t-20 -50q0 -16 4.5 -36t20.5 -62l2 -5h168v-95h-141q2 -10 2 -19v-18
q0 -16 -3.5 -32t-9.5 -31h205z" />
    <glyph glyph-name="three.LP" unicode="&#xe113;" horiz-adv-x="569" 
d="M244 -11q-24 0 -46.5 2.5t-43.5 6.5q-28 6 -49 14t-35 18v114q15 -12 36 -21.5t48 -17.5q22 -6 45.5 -9.5t47.5 -3.5q69 0 112 35t43 92q0 62 -46.5 92.5t-144.5 30.5h-74v101h74q80 0 130 32.5t50 91.5q0 51 -34.5 77.5t-99.5 26.5q-23 0 -45.5 -3t-45.5 -10
q-25 -7 -45.5 -16t-36.5 -20v111q33 19 84.5 30t103.5 11q109 0 172.5 -52t63.5 -141q0 -63 -29.5 -110.5t-83.5 -70.5v-2q59 -19 91.5 -66t32.5 -116q0 -104 -76 -165.5t-199 -61.5z" />
    <glyph glyph-name="three.LT" unicode="&#xe114;" horiz-adv-x="661" 
d="M280 -11q-24 0 -46.5 2.5t-43.5 6.5q-28 6 -49 14t-35 18v114q15 -12 36 -21.5t48 -17.5q22 -6 45.5 -9.5t47.5 -3.5q69 0 112 35t43 92q0 62 -46.5 92.5t-144.5 30.5h-74v101h74q80 0 130 32.5t50 91.5q0 51 -34.5 77.5t-99.5 26.5q-23 0 -45.5 -3t-45.5 -10
q-25 -7 -45.5 -16t-36.5 -20v111q33 19 84.5 30t103.5 11q109 0 172.5 -52t63.5 -141q0 -63 -29.5 -110.5t-83.5 -70.5v-2q59 -19 91.5 -66t32.5 -116q0 -104 -76 -165.5t-199 -61.5z" />
    </font>
</defs>
</svg>
